VA - Tomb of Ordeals (2019) [] | Dark Ambient

Нові коментарі

Нова тема   Відповісти
Автор Повідомлення
kolpavel 
VIP


З нами з: 04.05.14
Востаннє: 19.03.19
Повідомлень: 1234

2019-02-18 20:01  
VA - Tomb of Ordeals (2019) [] | Dark Ambient

VA - Tomb of Ordeals (2019) [] | Dark Ambient


Стиль: Dark Ambient
Країна, місто: Україна, Київ
Видавець: Cryo Chamber
Виконавці:
Dronny Darko (Олег Пузан)

Пісні:
    1. Oljus - Hræsvelgr - 07:52
    2. Dronny Darko - Geist - 05:00
    3. Ajna - Yacumo - 06:30
    4. Asath Reon - Urn of the Sleeper - 07:08
    5. Plamen Vecnosti - Fear is the Mother of All - 07:40
    6. Apocryphos - Nightside Ordeal - 11:30
    7. Cut The Light - Incarnat - 05:10
    8. Enmarta - Deus ex Caedem - 07:31


Тривалість: 00:58:23
Мова: iнструментальнi композицiї
Аудіо-кодек:
Бітрейт: 1112-1442 кб/с
Джерело: трекер
Додаткова інформація:
динамічний діапазон
foobar2000 1.2.5 / Замер динамического диапазона (DR) 1.1.1
Дата отчёта: 2019-02-17 13:48:51

--------------------------------------------------------------------------------
Анализ: Ajna / Tomb Of Ordeals (1)
Apocryphos / Tomb Of Ordeals (2)
Asath Reon / Tomb Of Ordeals (3)
Cut The Light / Tomb Of Ordeals (4)
Dronny Darko / Tomb Of Ordeals (5)
Enmarta / Tomb Of Ordeals (6)
Oljus / Tomb Of Ordeals (7)
Plamen Vecnosti / Tomb Of Ordeals (8)
--------------------------------------------------------------------------------

DR Пики RMS Продолжительность трека
--------------------------------------------------------------------------------
DR6 -1.25 дБ -10.01 дБ 6:31 03-Yacumo
DR9 -1.25 дБ -12.66 дБ 11:30 06-Nightside Ordeal
DR10 -1.25 дБ -13.68 дБ 7:08 04-Urn Of The Sleeper
DR9 -1.25 дБ -13.73 дБ 5:10 07-Incarnat
DR12 -1.25 дБ -16.64 дБ 5:00 02-Geist
DR8 -1.25 дБ -11.52 дБ 7:32 08-Deus Ex Caedem
DR8 -1.25 дБ -13.15 дБ 7:52 01-Hræsvelgr
DR10 -1.25 дБ -12.89 дБ 7:41 05-Fear Is The Mother Of All
--------------------------------------------------------------------------------

Количество треков: 8
Реальные значения DR: DR9

Частота: 44100 Гц
Каналов: 2
Разрядность: 24
Битрейт: 1290 кбит/с
Кодек:
================================================================================


Якщо Ви справді бажаєте підтримати українське - після прослуховування, якщо музика вам сподобалась, придбайте ліцензійний диск. Підтримаймо вітчизняних виконавців!


Срібний реліз (на рейтинг впливає 50% завантаженого)
 Трекер:    Зареєстрований   

Завантажити / скачати українську музику



відео для новачків



 Зареєстрований:   2019-02-18 20:01
 Розмір:   520 MB 
 Оцінка музики:   10/10 (Голосів: 3)
   
Ваш часовий пояс: GMT + 2 Години

Нова тема   Відповісти