Мами застрягли на Марсі / Mars Needs Moms (2011) AVC Ukr/Eng | Sub Ukr/Eng

Нові коментарі

Нова тема   Відповісти
Автор Повідомлення
staf777 
Відео Гуртом - підтримка та поширення
Відео Гуртом - підтримка та поширення


З нами з: 16.11.16
Востаннє: 29.10.20
Повідомлень: 4243

2019-02-18 18:42  
Мами застрягли на Марсі / Mars Needs Moms (2011) AVC Ukr/Eng | Sub Ukr/Eng

Мами застрягли на Марсі / Mars Needs Moms (2011) AVC Ukr/Eng | Sub Ukr/Eng


Жанр: Пригоди, Комедія, Анімація
Країна: США



Кінокомпанія: ImageMovers, Walt Disney Productions; мейджор – Buena Vista Sony Pictures Releasing
Режисер: Саймон Веллс
Ролі озвучують: Сет Ґрін, Ден Фоґлер, Джоан К’юзак, Елізабет Арнуа, Мінді Стерлінґ

Сюжет:
Їсти мерзенну брокколі, виносити сміття, рано лягати спати - кому взагалі потрібні мами, що змушують це робити? Так думав Майло, поки не виявив, що його маму викрали марсіани. Ось тут і виявилося, що йому належить відправитися на іншу планету, щоб знайти маму і повернути її додому.


Тривалість: 01:28:04
Якість: AVC
Відео:
кодек:
розмір кадру: 1024x428
бітрейт: 1980 кб/с

Аудіо # 1:
мова: українська
переклад: професійний дубльований
кодек: 5.1
бітрейт: 384 кб/с

Аудіо # 2:
мова: англійська
переклад: оригінал
кодек: 5.1
бітрейт: 384 кб/с

Джерело озвучення:


Субтитри:
мова: українська
тип: програмні (м'які)
формат: *.srt

Субтитри:
мова: англійська
тип: програмні (м'які)
формат: *.srt
MI
General
Unique ID : 276140252422610324256516564088569024125 (0xCFBEAD97E7AA7E0D61F9025173614E7D)
Complete name : I:\» Українське озвучення » Мультфільми\Mars Needs Moms (2011) AVC[UKR][ENG][Hurtom].
Format :
Format version : Version 4
File size : 1.69 GiB
Duration : 1 h 28 min
Overall bit rate : 2 751 kb/s
Movie name : Mars Needs Moms (2011) AVC[UKR][ENG][Hurtom]
Encoded date : UTC 2019-02-18 15:59:10
Writing application : v30.1.0 ('Forever And More') 64-bit
Writing library : libebml v1.3.6 + v1.4.9
Cover : Yes
Attachments : cover.jpg

Video
ID : 1
Format : AVC
Format/Info : Advanced Video Codec
Format profile : [email protected]
Format settings : CABAC / 8 Ref Frames
Format settings, CABAC : Yes
Format settings, ReFrames : 8 frames
Codec ID : V_MPEG4/ISO/AVC
Duration : 1 h 28 min
Bit rate : 1 980 kb/s
Width : 1 024 pixels
Height : 428 pixels
Display aspect ratio : 2.40:1
Frame rate mode : Constant
Frame rate : 23.976 (24000/1001) FPS
Color space : YUV
Chroma subsampling : 4:2:0
Bit depth : 8 bits
Scan type : Progressive
Bits/(Pixel*Frame) : 0.188
Stream size : 1.22 GiB (72%)
Writing library : core 115 r1995 c1e60b9
Encoding settings : cabac=1 / ref=8 / deblock=1:-2:-2 / analyse=0x3:0x133 / me=umh / subme=10 / psy=1 / psy_rd=1.00:0.00 / mixed_ref=1 / me_range=48 / chroma_me=1 / trellis=2 / 8x8dct=1 / cqm=0 / deadzone=21,11 / fast_pskip=0 / chroma_qp_offset=-2 / threads=6 / sliced_threads=0 / nr=0 / decimate=1 / interlaced=0 / bluray_compat=0 / constrained_intra=0 / bframes=8 / b_pyramid=2 / b_adapt=2 / b_bias=0 / direct=3 / weightb=1 / open_gop=0 / weightp=2 / keyint=250 / keyint_min=23 / scenecut=40 / intra_refresh=0 / rc=2pass / mbtree=0 / bitrate=1980 / ratetol=1.0 / qcomp=0.60 / qpmin=10 / qpmax=51 / qpstep=4 / cplxblur=20.0 / qblur=0.5 / ip_ratio=1.40 / pb_ratio=1.30 / aq=2:1.00
Language : English
Default : No
Forced : No

Audio #1
ID : 2
Format : AC-3
Format/Info : Audio Coding 3
Commercial name : Dolby Digital
Codec ID : A_AC3
Duration : 1 h 28 min
Bit rate mode : Constant
Bit rate : 384 kb/s
Channel(s) : 6 channels
Channel layout : L R C LFE Ls Rs
Sampling rate : 48.0 kHz
Frame rate : 31.250 FPS (1536 SPF)
Bit depth : 16 bits
Compression mode : Lossy
Stream size : 242 MiB (14%)
Language : Ukrainian
Service kind : Complete Main
Default : Yes
Forced : Yes

Audio #2
ID : 3
Format : AC-3
Format/Info : Audio Coding 3
Commercial name : Dolby Digital
Codec ID : A_AC3
Duration : 1 h 28 min
Bit rate mode : Constant
Bit rate : 384 kb/s
Channel(s) : 6 channels
Channel layout : L R C LFE Ls Rs
Sampling rate : 48.0 kHz
Frame rate : 31.250 FPS (1536 SPF)
Bit depth : 16 bits
Compression mode : Lossy
Stream size : 242 MiB (14%)
Title : Orig
Language : English
Service kind : Complete Main
Default : No
Forced : No

Text #1
ID : 4
Format : UTF-8
Codec ID : S_TEXT/UTF8
Codec ID/Info : UTF-8 Plain Text
Duration : 1 h 25 min
Bit rate : 74 b/s
Count of elements : 939
Stream size : 46.6 KiB (0%)
Language : Ukrainian
Default : No
Forced : No

Text #2
ID : 5
Format : UTF-8
Codec ID : S_TEXT/UTF8
Codec ID/Info : UTF-8 Plain Text
Duration : 1 h 25 min
Bit rate : 50 b/s
Count of elements : 935
Stream size : 31.3 KiB (0%)
Language : English
Default : No
Forced : No

Menu
00:00:00.000 : en:Chapter 01
00:04:04.577 : en:Chapter 02
00:09:15.011 : en:Chapter 03
00:13:56.836 : en:Chapter 04
00:19:13.402 : en:Chapter 05
00:28:13.900 : en:Chapter 06
00:34:29.776 : en:Chapter 07
00:40:19.250 : en:Chapter 08
00:47:15.623 : en:Chapter 09
00:56:49.781 : en:Chapter 10
01:09:03.347 : en:Chapter 11
01:21:25.421 : en:Chapter 12
01:28:03.778 : en:Chapter 13



Джерело: &
Особиста оцінка: 0 - не дивився


 Трекер:    Зареєстрований   

Завантажити / скачати мультфільм українською



відео для новачків



 Зареєстрований:   2019-02-18 18:42
 Розмір:   1.69 GB 
 Оцінка мультфільму:   8.4/10 (Голосів: 12)
   
Ваш часовий пояс: GMT + 2 Години

Нова тема   Відповісти