Гаррі Поттер і Келих Вогню / Harry Potter and the Goblet of Fire (2005) UHD Remux 4K 2160p HDR H.265 2xUkr/Eng | Sub Ukr/Eng

Нові коментарі

Нова тема   Відповісти
Останній раз роздавалося FisherCS (2019-06-08)
Автор Повідомлення
birdcage 
Новенький


З нами з: 15.04.18
Востаннє: 17.11.19
Повідомлень: 16

2019-02-18 18:13  
Гаррі Поттер і Келих Вогню / Harry Potter and the Goblet of Fire (2005) UHD Remux 4K 2160p HDR H.265 2xUkr/Eng | Sub Ukr/Eng

Гаррі Поттер і Келих Вогню / Harry Potter and the Goblet of Fire (2005) UHD Remux 4K 2160p HDR H.265 2xUkr/Eng | Sub Ukr/Eng


Жанр: фентезі, пригодницький, сімейний
Країна: Велика Британія, США



Кінокомпанія: Warner Bros., Heyday Films, Patalex IV Productions Limited
Режисер: Майк Ньюелл
Актори: Деніел Редкліфф, Руперт Ґрінт, Емма Вотсон, Том Фелтон, Роберт Паттінсон, Ральф Файнс, Алан Рікмен, Майкл Ґембон, Меґґі Сміт, Бонні Райт, Джеймс Фелпс, Олівер Фелпс

Сюжет:
На чемпіонаті світу з квідічу, що проходив у кінці літа, на небі з’явилася чорна мітка – мітка Смертежерів, після чого починається напад на глядачів чемпіонату. Подібні події не радують магічне суспільство, але черговий навчальний рік у школі чаклунства розпочато, а розпочинається він з Тричаклунського Турніру.
У Турнірі має право брати участь тільки один представник з кожної магічної школи. У цьому році трійку складають Шармбатона – французька школа, Дурмстранґ – школа, розташована в північній частині Європи, і Гоґвортс, як школа-господар турніру. Здавалося усі конкурсанти Турніру обрані, проте Гаррі дивним чином стає четвертим учасником і другим представником Гоґвортсу. Згідно з правилами рішення Келиха вогню не підлягає оскарженню, тому трійці друзів – Гаррі, Рону та Герміоні знову доведеться згуртуватися і відстояти не тільки честь школи, а й право на безпечне існування.


Тривалість: 02:37:05
Якість: 4K Remux 2160p
Відео:
кодек: HEVC/H.265
розмір кадру: 3840 х 2160
бітрейт: 43.9 Мб/с
бітова глибина: 10bit
контейнер: .m4v

Аудіо # 1:
мова: українська
переклад: багатоголосий закадровий
кодек: 2.0
бітрейт: 160 кб/с

Аудіо # 2:
мова: українська
переклад: багатоголосий закадровий
кодек: 2.0
бітрейт: 162 кб/с

Аудіо # 3:
мова: українська
переклад: багатоголосий закадровий
кодек: 5.1
бітрейт: 384 кб/с

Аудіо # 4:
мова: англійська
переклад: оригінал
кодек: 2.0
бітрейт: 165 кб/с

Аудіо # 5:
мова: англійська
переклад: оригінал
кодек: 5.1
бітрейт: 448 кб/с

Субтитри:
мова: українська
тип: програмні (м'які)
формат: *.srt

Субтитри:
мова: англійська
тип: програмні (м'які)
формат: *.srt
Info
Video #1
ID : 1
Format : HEVC
Format/Info : High Efficiency Video Coding
Codec ID : hvc1
Codec ID/Info : High Efficiency Video Coding
Duration : 2h 37mn
Bit rate : 43.9 Mbps
Width : 3 840 pixels
Height : 2 160 pixels
Display aspect ratio : 16:9
Frame rate mode : Variable
Frame rate : 23.976 fps
Minimum frame rate : 23.810 fps
Maximum frame rate : 24.390 fps
Bits/(Pixel*Frame) : 0.221
Stream size : 48.1 GiB (97%)
Language : English
Encoded date : UTC 2019-02-10 10:50:00
Tagged date : UTC 2019-02-10 11:04:47
Color primaries : BT.2020
Matrix coefficients : BT.2020 non-constant

Video #2
ID : 3
Format : JPEG
Codec ID : jpeg
Duration : 2h 37mn
Bit rate mode : Variable
Bit rate : 11.8 Kbps
Width : 3 840 pixels
Height : 2 160 pixels
Display aspect ratio : 16:9
Frame rate mode : Variable
Frame rate : 0.003 fps
Minimum frame rate : 0.001 fps
Maximum frame rate : 0.007 fps
Color space : YUV
Chroma subsampling : 4:2:0
Bit depth : 8 bits
Compression mode : Lossy
Bits/(Pixel*Frame) : 0.474
Stream size : 13.6 MiB (0%)
Encoded date : UTC 2019-02-10 10:50:00
Tagged date : UTC 2019-02-10 11:04:47

Audio #1
ID : 4
Format :
Format/Info : Advanced Audio Codec
Format profile : LC
Codec ID : 40
Duration : 2h 37mn
Bit rate mode : Variable
Bit rate : 160 Kbps
Maximum bit rate : 171 Kbps
Channel(s) : 2 channels
Channel positions : Front: L R
Sampling rate : 48.0 KHz
Compression mode : Lossy
Stream size : 179 MiB (0%)
Language : Ukrainian
Encoded date : UTC 2019-02-10 10:50:00
Tagged date : UTC 2019-02-10 11:04:47

Audio #2
ID : 5
Format :
Format/Info : Advanced Audio Codec
Format profile : LC
Codec ID : 40
Duration : 2h 37mn
Bit rate mode : Variable
Bit rate : 162 Kbps
Maximum bit rate : 251 Kbps
Channel(s) : 2 channels
Channel positions : Front: L R
Sampling rate : 48.0 KHz
Compression mode : Lossy
Stream size : 183 MiB (0%)
Language : Ukrainian
Encoded date : UTC 2019-02-10 10:50:00
Tagged date : UTC 2019-02-10 11:04:47

Audio #3
ID : 6
Format : AC-3
Format/Info : Audio Coding 3
Mode extension : CM (complete main)
Format settings, Endianness : Big
Codec ID : ac-3
Duration : 2h 37mn
Bit rate mode : Constant
Bit rate : 384 Kbps
Channel(s) : 6 channels
Channel positions : Front: L C R, Side: L R, LFE
Sampling rate : 48.0 KHz
Bit depth : 16 bits
Compression mode : Lossy
Stream size : 431 MiB (1%)
Language : Ukrainian
Encoded date : UTC 2019-02-10 10:50:00
Tagged date : UTC 2019-02-10 11:04:47

Audio #4
ID : 7
Format :
Format/Info : Advanced Audio Codec
Format profile : LC
Codec ID : 40
Duration : 2h 37mn
Bit rate mode : Variable
Bit rate : 165 Kbps
Maximum bit rate : 258 Kbps
Channel(s) : 2 channels
Channel positions : Front: L R
Sampling rate : 48.0 KHz
Compression mode : Lossy
Stream size : 185 MiB (0%)
Language : English
Encoded date : UTC 2019-02-10 10:50:00
Tagged date : UTC 2019-02-10 11:04:47

Audio #5
ID : 8
Format : AC-3
Format/Info : Audio Coding 3
Mode extension : CM (complete main)
Format settings, Endianness : Big
Codec ID : ac-3
Duration : 2h 37mn
Bit rate mode : Constant
Bit rate : 448 Kbps
Channel(s) : 6 channels
Channel positions : Front: L C R, Side: L R, LFE
Sampling rate : 48.0 KHz
Bit depth : 16 bits
Compression mode : Lossy
Stream size : 503 MiB (1%)
Language : English
Encoded date : UTC 2019-02-10 10:50:00
Tagged date : UTC 2019-02-10 11:04:47

Text #1
ID : 9
Format : Timed Text
Muxing mode : sbtl
Codec ID : tx3g
Duration : 2h 36mn
Bit rate mode : Variable
Bit rate : 78 bps
Stream size : 89.4 KiB (0%)
Language : Ukrainian
Encoded date : UTC 2019-02-10 10:50:00
Tagged date : UTC 2019-02-10 11:04:47

Text #2
ID : 10
Format : Timed Text
Muxing mode : sbtl
Codec ID : tx3g
Duration : 2h 23mn
Bit rate mode : Variable
Bit rate : 53 bps
Stream size : 55.7 KiB (0%)
Language : English
Encoded date : UTC 2019-02-10 10:50:00
Tagged date : UTC 2019-02-10 11:04:47
Скріншоти













Джерело:
Особиста оцінка: 8 - мені сподобалося



Реліз підготовлений для перегляду в iTunes , Apple TV 4k
Для перегляду данного релізу на PC рекомендується iTunes for Windows або VLC media player


Золотий реліз (завантажене не впливає на рейтинг)
 Трекер:    Зареєстрований   

Завантажити / скачати фільм українською



відео для новачків



 Зареєстрований:   2019-02-18 18:14
 Розмір:   49.62 GB 
 Оцінка фільму:   10/10 (Голосів: 10)
   
Virake 
Localize Team
Localize Team


З нами з: 07.07.09
Востаннє: 17.11.19
Повідомлень: 6410

2019-02-18 18:41  
в таких релізах треба вказувати, що справжнього 4K тут нема, а є студійний апскейл.

а в чому сенс HDR? судячи зі скріншотів, діапазон кольорів тут якраз зменшений, а не збільшений.

birdcage 
Новенький


З нами з: 15.04.18
Востаннє: 17.11.19
Повідомлень: 16

2019-02-18 21:18  
Virake
Я не кодував відео, справжє чи ні - не знаю, кращої якості не зустрічав. Але знаю що така картинка на тв, навіть якщо не справжнє 4к , мені особисто подобається значно більше ніж справжнє FHD.

Як оцінити HDR10 у відео по 8бітним скріншотам я, нажаль, теж не знаю, тому не скажу що там зменшено чи збільшено. На тв знову ж, кольори подобаютьcя, звичайно не олед, але імітація 10 біт пристойна.

test112211 
Новенький


З нами з: 31.03.17
Востаннє: 15.11.19
Повідомлень: 6

2019-03-07 13:33  
Будь ласка добавьте ще Harry Potter and the Deathly Hallows
Andrew1994 
Новенький


З нами з: 10.05.12
Востаннє: 15.11.19
Повідомлень: 24

2019-03-14 07:39  
Скажіть будь ласка, коли будуть добавлені наступні частини фільму ?
wladeeck 
Новенький


З нами з: 25.02.17
Востаннє: 12.11.19
Повідомлень: 2

2019-03-30 22:03  
Жаль, що не Open Matte без дурнуватих чорних полосок.
Ваш часовий пояс: GMT + 2 Години

Нова тема   Відповісти