Фатальний інстинкт / Fatal Instinct (1993) 720p Ukr/Eng

Нові коментарі

Нова тема   Відповісти
Автор Повідомлення
staf777 
Відео Гуртом - підтримка та поширення
Відео Гуртом - підтримка та поширення


З нами з: 16.11.16
Востаннє: 15.12.19
Повідомлень: 3084

2019-02-18 17:51  
Фатальний інстинкт / Fatal Instinct (1993) 720p Ukr/Eng

Фатальний інстинкт / Fatal Instinct (1993) 720p Ukr/Eng


Жанр: комедія, пародія
Країна: США



Кінокомпанія: Metro-Goldwyn-Mayer (MGM)
Режисер: Карл Райнер
Актори: Арманд Ассанте, Шерілін Фенн, Кейт Нелліган, Шон Янг, Крістофер МакДональд, Джеймс Рімар

Сюжет:
Пародійна комедія на знамениті трилери, такі як Основний інстинкт і Смертельний потяг. Детектив Нед Ревін зраджує дружину з лиховісною красунею Лолою. Його благовірна Лана в союзі з коханцем планує залишитися вдовою. Вся надія на Лору - кмітливу секретарку Ревіна, яка вміло інсценувала власну смерть ...


Тривалість: 01:29:50
Якість: 720p
Відео:
кодек:
розмір кадру: 1280x690
бітрейт: 5 492 кб/с

Аудіо # 1:
мова: українська
переклад: двоголосий закадровий
кодек: 2.0
бітрейт: 192 кб/с

Аудіо # 2:
мова: англійська
переклад: оригінал
кодек: 2.0
бітрейт: 192 кб/с

Джерело озвучення:
Info
General
Unique ID : 314911988094138359598843792020155324518 (0xECE9D7BFE2E120605E970D3E59A2D866)
Complete name : S:\» HD українською » Фільми в HD\Комедія\Fatal Instinct (1993) 720p [UKR_ENG] [Hurtom].
Format :
Format version : Version 4
File size : 3.69 GiB
Duration : 1 h 29 min
Overall bit rate : 5 877 kb/s
Movie name : Fatal Instinct (1993) 720p [UKR_ENG] [Hurtom]
Encoded date : UTC 2019-02-18 15:39:07
Writing application : v30.1.0 ('Forever And More') 64-bit
Writing library : libebml v1.3.6 + v1.4.9
Cover : Yes
Attachments : cover.jpg

Video
ID : 1
Format : AVC
Format/Info : Advanced Video Codec
Format profile : [email protected]
Format settings : CABAC / 9 Ref Frames
Format settings, CABAC : Yes
Format settings, ReFrames : 9 frames
Codec ID : V_MPEG4/ISO/AVC
Duration : 1 h 29 min
Bit rate : 5 492 kb/s
Width : 1 280 pixels
Height : 690 pixels
Display aspect ratio : 1.85:1
Frame rate mode : Constant
Frame rate : 23.976 (24000/1001) FPS
Color space : YUV
Chroma subsampling : 4:2:0
Bit depth : 8 bits
Scan type : Progressive
Bits/(Pixel*Frame) : 0.259
Stream size : 3.45 GiB (93%)
Title : by msltel
Writing library : core 146 r2538 121396c
Encoding settings : cabac=1 / ref=9 / deblock=1:-3:-3 / analyse=0x3:0x113 / me=umh / subme=10 / psy=1 / psy_rd=1.00:0.15 / mixed_ref=1 / me_range=32 / chroma_me=1 / trellis=2 / 8x8dct=1 / cqm=0 / deadzone=21,11 / fast_pskip=1 / chroma_qp_offset=-3 / threads=6 / lookahead_threads=1 / sliced_threads=0 / nr=0 / decimate=1 / interlaced=0 / bluray_compat=0 / constrained_intra=0 / bframes=11 / b_pyramid=2 / b_adapt=2 / b_bias=0 / direct=1 / weightb=1 / open_gop=0 / weightp=2 / keyint=230 / keyint_min=23 / scenecut=40 / intra_refresh=0 / rc_lookahead=40 / rc=crf / mbtree=0 / crf=18.0 / qcomp=0.60 / qpmin=0 / qpmax=69 / qpstep=4 / vbv_maxrate=40000 / vbv_bufsize=50000 / crf_max=0.0 / nal_hrd=none / filler=0 / ip_ratio=1.40 / pb_ratio=1.30 / aq=1:1.00
Language : English
Default : Yes
Forced : No

Audio #1
ID : 2
Format : AC-3
Format/Info : Audio Coding 3
Commercial name : Dolby Digital
Codec ID : A_AC3
Duration : 1 h 29 min
Bit rate mode : Constant
Bit rate : 192 kb/s
Channel(s) : 2 channels
Channel layout : L R
Sampling rate : 48.0 kHz
Frame rate : 31.250 FPS (1536 SPF)
Bit depth : 16 bits
Compression mode : Lossy
Stream size : 123 MiB (3%)
Title : UKR (1+1)
Language : Ukrainian
Service kind : Complete Main
Default : Yes
Forced : Yes

Audio #2
ID : 3
Format : AC-3
Format/Info : Audio Coding 3
Commercial name : Dolby Digital
Codec ID : A_AC3
Duration : 1 h 29 min
Bit rate mode : Constant
Bit rate : 192 kb/s
Channel(s) : 2 channels
Channel layout : L R
Sampling rate : 48.0 kHz
Frame rate : 31.250 FPS (1536 SPF)
Bit depth : 16 bits
Compression mode : Lossy
Stream size : 123 MiB (3%)
Title : Original
Language : English
Service kind : Complete Main
Default : No
Forced : No




Джерело: &
Особиста оцінка: 8 - мені сподобалося
Фатальний інстинкт / Fatal Instinct (1993) 720p Ukr/Eng Фатальний інстинкт / Fatal Instinct (1993) 720p Ukr/Eng


Срібний реліз (на рейтинг впливає 50% завантаженого)
 Трекер:    Зареєстрований   

Завантажити / скачати фільм українською



відео для новачків



 Зареєстрований:   2019-02-18 17:51
 Розмір:   3.69 GB 
 Оцінка фільму:   8.8/10 (Голосів: 9)
   
Інші релізи
   Фатальний інстинкт / Fatal Instinct (1993) 1080p Ukr/Eng staf777  3 / 0   10.2 GB   2019-12-12 18:30 
   Фатальний інстинкт / Fatal Instinct (1993) AVC Ukr/Eng drop_plz  4 / 2   2.07 GB   2018-12-03 08:31 
   Фатальний інстинкт / Fatal Instinct (1993) NemoInFire  3 / 0   1.22 GB   2011-09-25 19:57 
Ваш часовий пояс: GMT + 2 Години

Нова тема   Відповісти