Загадкове вбивство в Манхеттені / Manhattan Murder Mystery (1993) 720p Ukr/Eng | Sub Eng

Нові коментарі

Нова тема   Відповісти
Автор Повідомлення
Anonymous 







2019-02-18 18:19  
Загадкове вбивство в Манхеттені / Manhattan Murder Mystery (1993) 720p Ukr/Eng | Sub Eng

Загадкове вбивство в Манхеттені / Manhattan Murder Mystery (1993) 720p Ukr/Eng | Sub Eng


Жанр: комедія, кримінал, детектив
Країна: США



Кінокомпанія: TriStar Pictures
Режисер: Вуді Аллен
Актори: Вуді Аллен, Дайан Кітон, Алан Алда, Анджеліка Хюстон, Джеррі Едлер, Лінн Коен, Рон Ріфкін, Джой Бехар, Вільям Едді, Мелані Норріс

Сюжет:
Ларрі і Керол - звичайна подружня пара, яка нічим не відрізняється від тисяч інших нью-йорським сімей. Але несподівано спокійне життя порушується, коли помирає дружина їхнього сусіда. На перший погляд, в цьому нещасті немає нічого незвичайного. Проте Керол зауважує, що вдівець не особливо сумує про втрату.
Вона починає справжнє розслідування, крок за кроком наближаючись до розгадки. І коли новоспеченій Агаті Крісті здається, що зловісна таємниця ось-ось розкриється, вона випадково впізнає у вікні проїжджаючого автобуса померлу жінку.


Тривалість: 01:47:29
Якість: 720p
Відео:
кодек:
розмір кадру: 1280х690
бітрейт: 10152 кб/с

Аудіо # 1:
мова: українська
переклад: двоголосий закадровий
кодек: 2.0
бітрейт: 192 кб/с

Аудіо # 2:
мова: англійська
переклад: оригінал
кодек: 2.0
бітрейт: 192 кб/с

Аудіо # 3:
мова: англійська
переклад: оригінал
кодек: 2.0
бітрейт: 211 кб/с

Субтитри:
мова: англійська
тип: програмні (м'які)
формат: *.srt
Info
General
Unique ID : 201161009379515857312949854024527270971 (0x9756337F44CD45BC83FE93DACAEC543B)
Complete name : H:\Toloka\2019\Manhattan Murder Mystery (1993) 720p.
Format :
Format version : Version 4
File size : 8.09 GiB
Duration : 1 h 47 min
Overall bit rate : 10.8 Mb/s
Encoded date : UTC 2019-02-18 15:12:11
Writing application : v6.1.0 ('Old Devil') built on Mar 4 2013 09:10:42
Writing library : libebml v1.3.0 + v1.4.0

Video
ID : 1
Format : AVC
Format/Info : Advanced Video Codec
Format profile : [email protected]
Format settings : CABAC / 9 Ref Frames
Format settings, CABAC : Yes
Format settings, RefFrames : 9 frames
Codec ID : V_MPEG4/ISO/AVC
Duration : 1 h 47 min
Width : 1 280 pixels
Height : 690 pixels
Display aspect ratio : 1.85:1
Frame rate mode : Constant
Frame rate : 23.976 (24000/1001) FPS
Color space : YUV
Chroma subsampling : 4:2:0
Bit depth : 8 bits
Scan type : Progressive
Title : Manhattan.Murder.Mystery.(1993).720p.BluRay.AAC2.0.-DON
Writing library : core 157 r2935 545de2f
Encoding settings : cabac=1 / ref=9 / deblock=1:-3:-3 / analyse=0x3:0x113 / me=umh / subme=11 / psy=1 / psy_rd=1.03:0.00 / mixed_ref=1 / me_range=48 / chroma_me=1 / trellis=2 / 8x8dct=1 / cqm=0 / deadzone=21,11 / fast_pskip=0 / chroma_qp_offset=-2 / threads=22 / lookahead_threads=5 / sliced_threads=0 / slices=4 / nr=0 / decimate=0 / interlaced=0 / bluray_compat=0 / constrained_intra=0 / bframes=16 / b_pyramid=2 / b_adapt=2 / b_bias=0 / direct=3 / weightb=1 / open_gop=0 / weightp=2 / keyint=250 / keyint_min=23 / scenecut=40 / intra_refresh=0 / rc_lookahead=60 / rc=crf / mbtree=0 / crf=16.3 / qcomp=0.60 / qpmin=0 / qpmax=69 / qpstep=4 / vbv_maxrate=62500 / vbv_bufsize=78125 / crf_max=0.0 / nal_hrd=none / filler=0 / ip_ratio=1.25 / pb_ratio=1.15 / aq=3:0.65
Language : English
Default : Yes
Forced : No

Audio #1
ID : 2
Format : AC-3
Format/Info : Audio Coding 3
Commercial name : Dolby Digital
Codec ID : A_AC3
Duration : 1 h 47 min
Bit rate mode : Constant
Bit rate : 192 kb/s
Channel(s) : 2 channels
Channel layout : L R
Sampling rate : 48.0 kHz
Frame rate : 31.250 FPS (1536 SPF)
Bit depth : 16 bits
Compression mode : Lossy
Stream size : 148 MiB (2%)
Title : UKR(Новий)
Language : Ukrainian
Service kind : Complete Main
Default : Yes
Forced : Yes

Audio #2
ID : 3
Format : AC-3
Format/Info : Audio Coding 3
Commercial name : Dolby Digital
Codec ID : A_AC3
Duration : 1 h 47 min
Bit rate mode : Constant
Bit rate : 192 kb/s
Channel(s) : 2 channels
Channel layout : L R
Sampling rate : 48.0 kHz
Frame rate : 31.250 FPS (1536 SPF)
Bit depth : 16 bits
Compression mode : Lossy
Stream size : 148 MiB (2%)
Language : English
Service kind : Complete Main
Default : No
Forced : No

Audio #3
ID : 4
Format : LC
Format/Info : Advanced Audio Codec Low Complexity
Codec ID : A_AAC-2
Duration : 1 h 47 min
Channel(s) : 2 channels
Channel layout : L R
Sampling rate : 48.0 kHz
Frame rate : 46.875 FPS (1024 SPF)
Compression mode : Lossy
Delay relative to video : 9 ms
Title : AAC2.0 @ 211 Kbps (quality=0.7)
Language : English
Default : No
Forced : No

Text #1
ID : 5
Format : UTF-8
Codec ID : S_TEXT/UTF8
Codec ID/Info : UTF-8 Plain Text
Language : English
Default : No
Forced : No

Text #2
ID : 6
Format : UTF-8
Codec ID : S_TEXT/UTF8
Codec ID/Info : UTF-8 Plain Text
Title : Srt
Language : English
Default : No
Forced : No

Text #3
ID : 7
Format : UTF-8
Codec ID : S_TEXT/UTF8
Codec ID/Info : UTF-8 Plain Text
Title : SDH (srt)
Language : English
Default : No
Forced : No

Text #4
ID : 8
Format : VobSub
Codec ID : S_VOBSUB
Codec ID/Info : Picture based subtitle format used on DVDs
Title : SDH (vobsub)
Language : English
Default : No
Forced : No

Menu
00:00:00.000 : en:Chapter 1
00:05:10.185 : en:Chapter 2
00:09:49.631 : en:Chapter 3
00:12:58.444 : en:Chapter 4
00:18:21.058 : en:Chapter 5
00:21:39.882 : en:Chapter 6
00:26:03.896 : en:Chapter 7
00:31:10.702 : en:Chapter 8
00:37:15.275 : en:Chapter 9
00:41:14.889 : en:Chapter 10
00:46:28.327 : en:Chapter 11
00:50:43.624 : en:Chapter 12
00:55:21.485 : en:Chapter 13
00:57:59.559 : en:Chapter 14
01:02:45.136 : en:Chapter 15
01:07:57.782 : en:Chapter 16
01:11:01.090 : en:Chapter 17
01:15:34.071 : en:Chapter 18
01:21:13.994 : en:Chapter 19
01:27:55.645 : en:Chapter 20
01:31:19.599 : en:Chapter 21
01:35:48.451 : en:Chapter 22
01:39:38.848 : en:Chapter 23
01:44:26.552 : en:Chapter 24
Скріншоти






Подяка за надану українську доріжку пані - olgaya
Подяка за наданий український постер пану - DareDevil96
Особиста подяка пану denixx за надану матеріальну допомогу на підтримку цього і майбутніх релізів.
Джерело:


Срібний реліз (на рейтинг впливає 50% завантаженого)
 Трекер:    Зареєстрований   

Завантажити / скачати фільм українською



відео для новачків



 Зареєстрований:   2019-02-18 18:19
 Розмір:   8.09 GB 
 Оцінка фільму:   10/10 (Голосів: 3)
   
Ваш часовий пояс: GMT + 2 Години

Нова тема   Відповісти