Гострі предмети (Сезон 1, серії 1-4) / Sharp Object (Season 1, episodes 1-4) 720p

Нові коментарі

Нова тема   Відповісти
Автор Повідомлення
dragheart 
Новенький


З нами з: 27.01.16
Востаннє: 18.03.19
Повідомлень: 22

2019-02-18 15:51  
Гострі предмети (Сезон 1, серії 1-4) / Sharp Object (Season 1, episodes 1-4) 720p

Гострі предмети (Сезон 1, серії 1-4) / Sharp Object (Season 1, episodes 1-4) 720p


Жанр: детектив, драма, кримінальний, трилер
Країна: США



Кінокомпанія: Blumhouse Productions, Blumhouse Television, Crazyrose, eOne Television, Fourth Born, Home Box Office (HBO), Tiny Pyro
Режисер: Жан-Марк Валле
Актори: Емі Адамс, Патріція Кларксон, Кріс Мессіна, Еліза Сканлен, Метт Кревен, Генрі Черні, Тейлор Джон Сміт, Медісон Девенпорт, Мігель Сандоваль, Софія Лілліс

Сюжет:
Відмінний, атмосферний та моторошний трилер від каналу НВО за мотивами бестселеру американської письменниці Гілліан Флінн.
В центрі сюжету – історія журналістки на ім'я Каміла, яка має купу проблем в особистому житті, любить випити та працює у другорядній локальній газеті, хоч і мріє про визнання. Одного дня, редактор газети знаходить для Камілли потенційний репортаж - прямо в місті її дитинства, на півдні Міссурі, з різницею в один рік були вбиті дві дівчинки. З метою економії Камілі доведеться жити в батьківській хаті з матір'ю, яка володіє місцевою свинофермою і величезним маєтком. Занурення Каміли в страшну реальність провінційного життя обертається для журналістки чередою по-справжньому кошмарних подій…


Тривалість: 1 серія: 54:00 (цілком серій: 8)
Перелік серій
E01 Vanish
E02 Dirt
E03 Fix
E04 Ripe
E05 Closer
E06 Cherry
E07 Falling
E08 Milk
Якість: 720p

Відео:
кодек:
розмір кадру: 1280 х 720
бітрейт: ~1850 кб/с

Аудіо:
мова: українська
переклад: багатоголосий закадровий
кодек: 2.0
бітрейт: 224 кб/с

Джерело озвучення:
DubLiCat
Шукайте нашу сторінку на FaceBook: DubLcat


Посилання на ТРЕЙЛЕР
Info
General
Unique ID : 203562581718127357051879926778163995390 (0x9924BA27BB8C5707856A2274BDDDA2FE)
Complete name : F:\Проект\Готовые проекты\Sharp Object S01\Sharp.Objects.S01E01.720p..Ukr.
Format :
Format version : Version 4 / Version 2
File size : 934 MiB
Duration : 1h 1mn
Overall bit rate : 2 121 Kbps
Encoded date : UTC 2019-02-08 20:14:02
Writing application : v23.0.0 ('The Bride Said No') 64-bit
Writing library : libebml v1.3.6 + v1.4.9
DURATION : 01:01:36.416000000
NUMBER_OF_FRAMES : 115513
NUMBER_OF_BYTES : 103499648
_STATISTICS_WRITING_APP : v23.0.0 ('The Bride Said No') 64-bit
_STATISTICS_WRITING_DATE_UTC : 2019-02-08 20:14:02
_STATISTICS_TAGS : BPS DURATION NUMBER_OF_FRAMES NUMBER_OF_BYTES

Video
ID : 1
Format : AVC
Format/Info : Advanced Video Codec
Format profile : [email protected]
Format settings, CABAC : Yes
Format settings, ReFrames : 1 frame
Codec ID : V_MPEG4/ISO/AVC
Duration : 1h 1mn
Bit rate : 1 854 Kbps
Nominal bit rate : 2 000 Kbps
Width : 1 280 pixels
Height : 720 pixels
Display aspect ratio : 16:9
Frame rate mode : Variable
Frame rate : 23.976 fps
Color space : YUV
Chroma subsampling : 4:2:0
Bit depth : 8 bits
Scan type : Progressive
Bits/(Pixel*Frame) : 0.084
Stream size : 817 MiB (87%)
Writing library : core 129
Encoding settings : cabac=1 / ref=1 / deblock=1:0:0 / analyse=0x1:0x131 / me=dia / subme=2 / psy=1 / psy_rd=1.00:0.00 / mixed_ref=0 / me_range=16 / chroma_me=1 / trellis=0 / 8x8dct=0 / cqm=0 / deadzone=21,11 / fast_pskip=1 / chroma_qp_offset=0 / threads=4 / lookahead_threads=1 / sliced_threads=0 / nr=0 / decimate=1 / interlaced=0 / bluray_compat=0 / constrained_intra=0 / bframes=0 / weightp=2 / keyint=250 / keyint_min=25 / scenecut=40 / intra_refresh=0 / rc_lookahead=40 / rc=abr / mbtree=1 / bitrate=2000 / ratetol=1.0 / qcomp=0.60 / qpmin=10 / qpmax=51 / qpstep=4 / ip_ratio=1.41 / aq=1:1.00
Default : Yes
Forced : No

Audio
ID : 2
Format : AC-3
Format/Info : Audio Coding 3
Mode extension : CM (complete main)
Codec ID : A_AC3
Duration : 1h 1mn
Bit rate mode : Constant
Bit rate : 224 Kbps
Channel(s) : 2 channels
Channel positions : Front: L R
Sampling rate : 48.0 KHz
Bit depth : 16 bits
Compression mode : Lossy
Stream size : 98.7 MiB (11%)
Language : Ukrainian
Default : Yes
Forced : No
Скріншоти




Джерело:
Особиста оцінка: 8 - мені сподобалося


Авторський реліз (завантажувати можна без реєстрації)
 Трекер:    Зареєстрований   

Завантажити / скачати серіал українською



відео для новачків



 Зареєстрований:   2019-03-14 22:02
 Розмір:   3.24 GB 
 Оцінка серіалу:   9.7/10 (Голосів: 9)
   
tsyka 
Частий відвідувач


З нами з: 12.02.16
Востаннє: 19.03.19
Повідомлень: 34

2019-02-19 23:46  
Коли 3-а серія буде? Дякую
don pedro 
Попереджень: 1
Попереджень: 1 


З нами з: 29.06.11
Востаннє: 18.03.19
Повідомлень: 13165

2019-02-19 23:48  
Серіал і роман-першоджерело дуже сильні.
dragheart 
Новенький


З нами з: 27.01.16
Востаннє: 18.03.19
Повідомлень: 22

2019-02-20 00:18  
tsyka
Намагатимемося якомога швидше

dragheart 
Новенький


З нами з: 27.01.16
Востаннє: 18.03.19
Повідомлень: 22

2019-02-26 10:57  
Додано 3-й епізод
dragheart 
Новенький


З нами з: 27.01.16
Востаннє: 18.03.19
Повідомлень: 22

2019-03-14 22:06  
Додано 4-й епізод
don pedro 
Попереджень: 1
Попереджень: 1 


З нами з: 29.06.11
Востаннє: 18.03.19
Повідомлень: 13165

2019-03-18 05:41  
Гарне озвучення, але з якихось незбагнених причин "біле сміття" у першій серії перекладено як просто робітників.
dragheart 
Новенький


З нами з: 27.01.16
Востаннє: 18.03.19
Повідомлень: 22

2019-03-18 15:37  
don pedro
Дякую за схвальний відгук, а з приводу переклада, чесно кажучі, я вже не пам'ятаю чому було зроблене саме так. Іноді ти робишь водночас декілька проектів, і не можешь услідкувати за всім)

Ваш часовий пояс: GMT + 2 Години

Нова тема   Відповісти