Журнал Ліги Чемпіонів 2018/2019 (17.02.2019) 720р

Нові коментарі

Нова тема   Відповісти
Останній раз роздавалося lokk234 (2020-01-07)
Автор Повідомлення
lokk234 
Новенький


З нами з: 05.03.14
Востаннє: 20.04.20
Повідомлень: 24

2019-02-18 15:46  
Журнал Ліги Чемпіонів 2018/2019 (17.02.2019) 720р

Журнал Ліги Чемпіонів 2018/2019 (17.02.2019) 720р


Жанр: спорт, футбол
Телеканали: Футбол 1/2
Опис:
До вашої уваги черговий випуск журналу найпрестижнішого футбольного турніру в світі.
У цьому випуску:
-футбольна філософія головного тренера «Реалу» Сантьяго Соларі;
-історія європейської кар’єри Лукаса Моури із Тоттенхема;
-ексклюзивні інтерв’ю із французами Самюелем Умтіті (захиснико «Барселони» ) та нападником «Атлетіко» Антуаном Грізманом;
-також анонс залишившихся перших матчів 1/8 фіналу.


Тривалість: 00:24:16
Якість:
Відео:
кодек:
розмір кадру: 1280 х 720
бітрейт: 2014 кб/с

Аудіо:
мова: українська
коментатор: Андрій Малиновський
кодек: 2.0
бітрейт: 128 кб/с
Скріншоти




Info:
General
Complete name : D:\Donowload\UCL3.mp4
Format : MPEG-4
Format profile : Base Media / Version 2
Codec ID : mp42
File size : 372 MiB
Duration : 24mn 16s
Overall bit rate : 2 144 Kbps
Encoded date : UTC 2019-02-18 11:08:50
Tagged date : UTC 2019-02-18 11:08:50
gsst : 0
gstd : 1456982

Video
ID : 1
Format : AVC
Format/Info : Advanced Video Codec
Format profile : [email protected]
Format settings, CABAC : Yes
Format settings, ReFrames : 3 frames
Codec ID : avc1
Codec ID/Info : Advanced Video Coding
Duration : 24mn 16s
Bit rate mode : Variable
Bit rate : 2 014 Kbps
Width : 1 280 pixels
Height : 720 pixels
Display aspect ratio : 16:9
Frame rate mode : Constant
Frame rate : 23.976 fps
Color space : YUV
Chroma subsampling : 4:2:0
Bit depth : 8 bits
Scan type : Progressive
Bits/(Pixel*Frame) : 0.091
Stream size : 350 MiB (94%)

Audio
ID : 2
Format :
Format/Info : Advanced Audio Codec
Format profile : LC
Codec ID : 40
Duration : 24mn 16s
Bit rate mode : Variable
Bit rate : 128 Kbps
Channel(s) : 2 channels
Channel positions : Front: L R
Sampling rate : 44.1 KHz
Compression mode : Lossy
Stream size : 22.2 MiB (6%)
Title : ISO Media file produced by Google Inc. Created on: 02/18/2019.
Language : Ukrainian
Джерело:
Особиста оцінка: 9 - мені сподобалося


 Трекер:    Зареєстрований   

Завантажити / скачати торрент



відео для новачків



 Зареєстрований:   2019-02-18 15:46
 Розмір:   372 MB 
 Оцінка:   10/10 (Голосів: 2)
   
Ваш часовий пояс: GMT + 2 Години

Нова тема   Відповісти