Кохання втрьох / Threesome (1994) 1080p Ukr/Eng | Sub Eng

Нові коментарі

Нова тема   Відповісти
Автор Повідомлення
Anonymous 







2019-02-18 13:24  
Кохання втрьох / Threesome (1994) 1080p Ukr/Eng | Sub Eng

Кохання втрьох / Threesome (1994) 1080p Ukr/Eng | Sub Eng


Жанр: романтична комедія, драма
Країна: США



Кінокомпанія: Motion Picture Corporation of America (MPCA), TriStar Pictures
Режисер: Ендрю Флемінг
Актори: Лара Флінн Бойл, Стівен Болдвін, Джош Чарльз, Алексіс Аркетт, Марта Гехман, Марк Арнольд та інші

Сюжет:
Студенти Еді і Стюарт удвох займають велику кімнату в студентському гуртожитку. Помилково до них підселюють дівчину на ім'я Алекс. Еді і Стюарт дуже раді появі нової сусідки, але незабаром відносини між сусідами перетворюються в любовний трикутник. Алекс закохується в Едді, а Стюарт шукає прихильності Алекс. Сексуальна напруга зростає, коли Едді усвідомлює, що він гей і любить Стюарта...


Тривалість: 01:33:18
Якість: 1080p
Відео:
кодек:
розмір кадру: 1920х1080
бітрейт: 14,2 Мб/с

Аудіо # 1:
мова: українська
переклад: двоголосий закадровий
кодек: 2.0
бітрейт: 192 кб/с

Аудіо # 2:
мова: англійська
переклад: оригінал
кодек: E- 2.0
бітрейт: 224 кб/с

Субтитри # 1-2:
мова: англійська (повні, SDH)
тип: програмні (м'які)
формат: *.srt
Info
General
Unique ID : 191306885444073649186246919087897328052 (0x8FEC5DAD3908BC25BF5757DBB5AA39B4)
Complete name : H:\Toloka\2019\Threesome (1994) 1080p.
Format :
Format version : Version 4
File size : 9.70 GiB
Duration : 1 h 33 min
Overall bit rate mode : Variable
Overall bit rate : 14.9 Mb/s
Encoded date : UTC 2019-02-18 11:16:25
Writing application : v6.1.0 ('Old Devil') built on Mar 4 2013 09:10:42
Writing library : libebml v1.3.0 + v1.4.0

Video
ID : 1
Format : AVC
Format/Info : Advanced Video Codec
Format profile : [email protected]
Format settings : CABAC / 4 Ref Frames
Format settings, CABAC : Yes
Format settings, RefFrames : 4 frames
Codec ID : V_MPEG4/ISO/AVC
Duration : 1 h 33 min
Bit rate mode : Variable
Bit rate : 14.2 Mb/s
Maximum bit rate : 15.0 Mb/s
Width : 1 920 pixels
Height : 1 080 pixels
Display aspect ratio : 16:9
Frame rate mode : Constant
Frame rate : 23.976 (24000/1001) FPS
Color space : YUV
Chroma subsampling : 4:2:0
Bit depth : 8 bits
Scan type : Progressive
Bits/(Pixel*Frame) : 0.285
Stream size : 9.23 GiB (95%)
Default : Yes
Forced : No
Color range : Limited
Color primaries : BT.709
Transfer characteristics : BT.709
Matrix coefficients : BT.709
Statistics Tags Issue : v19.0.0 ('Brave Captain') 64-bit 2019-02-02 23:01:19 / v6.1.0 ('Old Devil') built on Mar 4 2013 09:10:42 2019-02-18 11:16:25
FromStats_BitRate : 14463343
FromStats_Duration : 01:33:17.634000000
FromStats_FrameCount : 134209
FromStats_StreamSize : 10120063058

Audio #1
ID : 2
Format : AC-3
Format/Info : Audio Coding 3
Commercial name : Dolby Digital
Codec ID : A_AC3
Duration : 1 h 33 min
Bit rate mode : Constant
Bit rate : 192 kb/s
Channel(s) : 2 channels
Channel layout : L R
Sampling rate : 48.0 kHz
Frame rate : 31.250 FPS (1536 SPF)
Bit depth : 16 bits
Compression mode : Lossy
Stream size : 128 MiB (1%)
Title : UKR (1+1)
Language : Ukrainian
Service kind : Complete Main
Default : Yes
Forced : Yes

Audio #2
ID : 3
Format : E-AC-3
Format/Info : Enhanced AC-3
Commercial name : Dolby Digital Plus
Codec ID : A_EAC3
Duration : 1 h 33 min
Bit rate mode : Constant
Bit rate : 224 kb/s
Channel(s) : 2 channels
Channel layout : L R
Sampling rate : 48.0 kHz
Frame rate : 31.250 FPS (1536 SPF)
Compression mode : Lossy
Stream size : 149 MiB (2%)
Title : ENG
Language : English
Service kind : Complete Main
Default : No
Forced : No
Statistics Tags Issue : v19.0.0 ('Brave Captain') 64-bit 2019-02-02 23:01:19 / v6.1.0 ('Old Devil') built on Mar 4 2013 09:10:42 2019-02-18 11:16:25
FromStats_BitRate : 224000
FromStats_Duration : 01:33:17.600000000
FromStats_FrameCount : 174925
FromStats_StreamSize : 156732800

Text #1
ID : 4
Format : UTF-8
Codec ID : S_TEXT/UTF8
Codec ID/Info : UTF-8 Plain Text
Language : English
Default : No
Forced : No
Statistics Tags Issue : v19.0.0 ('Brave Captain') 64-bit 2019-02-02 23:01:19 / v6.1.0 ('Old Devil') built on Mar 4 2013 09:10:42 2019-02-18 11:16:25
FromStats_BitRate : 65
FromStats_Duration : 01:32:19.734000000
FromStats_FrameCount : 1381
FromStats_StreamSize : 45187

Text #2
ID : 5
Format : UTF-8
Codec ID : S_TEXT/UTF8
Codec ID/Info : UTF-8 Plain Text
Title : SDH
Language : English
Default : No
Forced : No
Statistics Tags Issue : v19.0.0 ('Brave Captain') 64-bit 2019-02-02 23:01:19 / v6.1.0 ('Old Devil') built on Mar 4 2013 09:10:42 2019-02-18 11:16:25
FromStats_BitRate : 68
FromStats_Duration : 01:32:19.734000000
FromStats_FrameCount : 1511
FromStats_StreamSize : 47452
Скріншоти










За українську доріжку подяка п.: abodnya, urij546724
За постер подяка п. thefir
Особиста подяка пану denixx за надану матеріальну допомогу на підтримку цього і майбутніх релізів.
Джерело:


Срібний реліз (на рейтинг впливає 50% завантаженого)
 Трекер:    Зареєстрований   

Завантажити / скачати фільм українською



відео для новачків



 Зареєстрований:   2019-02-18 13:24
 Розмір:   9.7 GB 
 Оцінка фільму:   5.5/10 (Голосів: 2)
   
Інші релізи
   Кохання втрьох / Threesome (1994) Ukr/Eng | Sub Eng karvai0  4 / 0   1.45 GB   2011-03-03 10:44 
Ваш часовий пояс: GMT + 2 Години

Нова тема   Відповісти