Кімната 104 (Сезон 1) / Room 104 (Season 1) (2017) 720p Eng | sub Ukr

Нові коментарі

Нова тема   Відповісти
Автор Повідомлення
Chupacabr007 
Свій


З нами з: 07.07.15
Востаннє: 04.12.20
Повідомлень: 94

2019-02-18 13:06  
Кімната 104 (Сезон 1) / Room 104 (Season 1) (2017) 720p Eng | sub Ukr

Кімната 104 (Сезон 1) / Room 104 (Season 1) (2017) 720p Eng | sub Ukr


Жанр: драма, трилер, комедія
Країна: США



Кінокомпанія: Duplass Brothers Productions, HBO
Режисер: Сара Адіна, Патрік Брайс, Дейна Хенсон
Актори: Даві Блу Басіч, Спенсер Гаррет, Каран Соні, Г'юго Армстронг, Джей Дюпласс, Дж. Клод Дірінг

Сюжет:
Сюжет історії обертається навколо однієї невеликої кімнати під номером 104 в досить милому і прибраному готелі. За стільки років існування закладу, ця кімната побачила і стерпіла багато. Її стіни чули радощі, крики гніву, сльози і навіть погрози. Кого тільки доля не приносила в апартаменти 104. Тут неодноразово з'являлися багатії, які люблять смітити грошима на всі боки, а також часом, але все ж рідше заглядали і бідняки. Сьогодні у них ще були гроші на оплату номера, а завтра кишені порожні і знову вулиця, холод, байдужість перехожих. Але все це для кімнати дрібниці, до такого її стіни звикли, але пам'ятають вони страшніші справи, які пригнічують і лякають, колись навіть заьруднивши номер людською кров'ю. Це не пройшло безслідно і відбиток тих жахливих справ, ніби клеймо, яке в'їлося в номер 104.


Тривалість: ~ 00:25:00
Перелік серій
01.Ralphie
02.Pizza Boy
03.The Knockadoo
04.I Knew You Weren't Dead
05.The Internet
06.Voyeurs
07.The Missionaries
08.Phoenix
09.Boris
10.Red Tent
11.The Fight
12.My Love
Якість:
Відео:
кодек:
розмір кадру: 1280 х 720
бітрейт:~2600 кб/с

Аудіо:
мова: англійська
переклад: оригінал
кодек: 5.1
бітрейт: 384 кб/с

Субтитри:
мова: українська
тип: програмні (м'які)
формат: *.srt
переклад: [SubAutumn]
Скріншоти





Info
General
Complete name : D:\SubAutumn\Room 104 (Season 1)\Room.104.S01E01.Ralphie.
Format :
Format version : Version 4 / Version 2
File size : 509 MiB
Duration : 23mn 13s
Overall bit rate mode : Variable
Overall bit rate : 3 063 Kbps
Encoded date : UTC 2018-11-21 15:40:21
Writing application : v6.5.0 ('Isn't she lovely') built on Oct 20 2013 12:50:05
Writing library : libebml v1.3.0 + v1.4.1

Video
ID : 1
Format : AVC
Format/Info : Advanced Video Codec
Format profile : [email protected]
Format settings, CABAC : Yes
Format settings, ReFrames : 4 frames
Format settings, GOP : M=3, N=72
Codec ID : V_MPEG4/ISO/AVC
Duration : 23mn 13s
Bit rate mode : Variable
Bit rate : 2 618 Kbps
Maximum bit rate : 3 510 Kbps
Width : 1 280 pixels
Height : 720 pixels
Display aspect ratio : 16:9
Frame rate mode : Constant
Frame rate : 23.976 fps
Color space : YUV
Chroma subsampling : 4:2:0
Bit depth : 8 bits
Scan type : Progressive
Bits/(Pixel*Frame) : 0.118
Stream size : 435 MiB (85%)
Language : English
Default : Yes
Forced : No

Audio
ID : 2
Format : AC-3
Format/Info : Audio Coding 3
Mode extension : CM (complete main)
Format settings, Endianness : Big
Codec ID : A_AC3
Duration : 23mn 13s
Bit rate mode : Constant
Bit rate : 384 Kbps
Channel(s) : 6 channels
Channel positions : Front: L C R, Side: L R, LFE
Sampling rate : 48.0 KHz
Compression mode : Lossy
Delay relative to video : -41ms
Stream size : 63.8 MiB (13%)
Language : English
Default : No
Forced : No

Text
ID : 3
Format : UTF-8
Codec ID : S_TEXT/UTF8
Codec ID/Info : UTF-8 Plain Text
Title : Room.104.S01E01.Ralphie
Language : Ukrainian
Default : Yes
Forced : No
Джерело:


Золотий реліз (завантажене не впливає на рейтинг)
 Трекер:    Зареєстрований   

Завантажити / скачати серіал українською



відео для новачків



 Зареєстрований:   2019-05-08 10:21
 Розмір:   5.76 GB 
 Оцінка серіалу:   10/10 (Голосів: 4)
   
Chupacabr007 
Свій


З нами з: 07.07.15
Востаннє: 04.12.20
Повідомлень: 94

2019-02-28 12:14  
Додано 5 серію
Chupacabr007 
Свій


З нами з: 07.07.15
Востаннє: 04.12.20
Повідомлень: 94

2019-03-05 14:41  
Додано 6-7 серії
Chupacabr007 
Свій


З нами з: 07.07.15
Востаннє: 04.12.20
Повідомлень: 94

2019-03-24 14:43  
Додано 8-9 серії
Chupacabr007 
Свій


З нами з: 07.07.15
Востаннє: 04.12.20
Повідомлень: 94

2019-05-08 10:26  
Додано 10-12 серії
Повний сезон!

tmturka 
Новенький


З нами з: 20.02.11
Востаннє: 18.11.20
Повідомлень: 7

2019-05-11 08:13  
не завантажується
leicheman 
Відео Гуртом - фільмокрай
Відео Гуртом - фільмокрай


З нами з: 03.07.14
Востаннє: 05.12.20
Повідомлень: 5708

2019-05-11 08:19  
tmturka написано:
не завантажується

Бо ніхто ще не роздає.

Vitt 
Поважний учасник


З нами з: 17.01.11
Востаннє: 05.12.20
Повідомлень: 168

2019-05-14 17:04  
Люди!
Хто з відкритими портами - станьте на роздачу, будь-ласка!
Ніяк не можу останні серії завантажити :(

tmturka 
Новенький


З нами з: 20.02.11
Востаннє: 18.11.20
Повідомлень: 7

2019-05-31 08:18  
не завантиажується (підєднання до пірів)
igor911 
Модератор відео


З нами з: 18.01.08
Востаннє: 05.12.20
Повідомлень: 15098

2019-05-31 08:21  
tmturka написано:
не завантиажується (підєднання до пірів)

закритий порт ("сіра" ip-адреса)
https://toloka.to/t2843 https://toloka.to/t2382 https://toloka.to/t2846

Ваш часовий пояс: GMT + 2 Години

Нова тема   Відповісти