Гаррі Поттер і в'язень Азкабану / Harry Potter and the Prisoner of Azkaban (2004) UHD Remux 4K 2160p HDR H.265 3xUkr/Eng | Sub Ukr/Eng

Нові коментарі

Нова тема   Відповісти
Автор Повідомлення
birdcage 
Новенький


З нами з: 15.04.18
Востаннє: 14.10.19
Повідомлень: 16

2019-02-17 23:53  
Гаррі Поттер і в'язень Азкабану / Harry Potter and the Prisoner of Azkaban (2004) UHD Remux 4K 2160p HDR H.265 3xUkr/Eng | Sub Ukr/Eng

Гаррі Поттер і в'язень Азкабану / Harry Potter and the Prisoner of Azkaban (2004) UHD Remux 4K 2160p HDR H.265 3xUkr/Eng | Sub Ukr/Eng
Український постер:



Жанр: фентезі, пригодницький, сімейний
Країна: Велика Британія, США



Кінокомпанія: Warner Bros., 1492 Pictures, Heyday Films
Режисер: Альфонсо Куарон
Актори: Деніел Редкліфф, Руперт Ґрінт, Емма Вотсон, Том Фелтон, Ґері Олдмен, Девід Т'юліс, Майкл Ґембон, Алан Рікмен, Роббі Колтрейн, Меґґі Сміт, Джеймс Фелпс, Олівер Фелпс

Сюжет:
Гаррі, Рон і Герміона, вже підлітки, повертаються на третій рік навчання у Гоґвартс, де вони змушені зіткнутися з втікачем із в'язниці Азкабан, Сіріусом Блеком. Гаррі та його друзі проводять свій третій рік навчання міркуючи як впоратися з напів-кіонем напів-орлом гіпогрифрм Бакбиком, навчаючись протистояти ховчикам і оволодівають мистецтвом ворожіння. Вони також відвідують чарівне селище Гоґсмід і верескливу халупу, яка вважається найстрашнішою будівлею в Британії. На додаток до цих нових вражень, Гаррі повинен подолати загрозливих та зловісних істот - дементорів, перехитрити небезпечного перевертня і нарешті розібратися з правдою про Сіріуса Блек і його відношеням до Гаррі та його батьків. Зі своїми кращими друзями Гаррі вдосконалює володіння магією, перетинає бар'єри часу і змінює долю більш ніж одного життя.


Тривалість: 02:21:41
Якість: 4K Remux 2160p
Відео:
кодек: H.265 (HEVC)
розмір кадру: 3840x2160
бітрейт: 59,8 Mб/с
бітова глибина: 10 біт
кольоровий простір: BT.2020 (HDR)
контейнер: .m4v

Аудіо # 1:
мова: українська
переклад: багатоголосий закадровий
кодек: 2.0
бітрейт: 160 кб/с

Аудіо # 2:
мова: українська
переклад: багатоголосий закадровий
кодек: 2.0
бітрейт: 161 кб/с

Аудіо #3:
мова: українська
переклад: багатоголосий закадровий
кодек: 5.1
бітрейт: 640 кб/с

Аудіо # 4:
мова: українська
переклад: багатоголосий закадровий
кодек: 2.0
бітрейт: 161 кб/с

Аудіо # 5:
мова: українська
переклад: багатоголосий закадровий
кодек: 5.1
бітрейт: 640 кб/с

Аудіо # 6:
мова: англійська
переклад: оригінал
кодек: 2.0
бітрейт: 165 кб/с

Аудіо # 7:
мова: англійська
переклад: оригінал
кодек: 5.1
бітрейт: 384 кб/с

Субтитри:
мова: українська
тип: програмні (м'які)
формат: *.srt

Субтитри:
мова: англійська
тип: програмні (м'які)
формат: *.srt
Info
Video #1
ID : 1
Format : HEVC
Format/Info : High Efficiency Video Coding
Codec ID : hvc1
Codec ID/Info : High Efficiency Video Coding
Duration : 2h 21mn
Bit rate : 59.8 Mbps
Width : 3 840 pixels
Height : 2 160 pixels
Display aspect ratio : 16:9
Frame rate mode : Variable
Frame rate : 23.976 fps
Minimum frame rate : 22.727 fps
Maximum frame rate : 24.390 fps
Bits/(Pixel*Frame) : 0.301
Stream size : 59.1 GiB (96%)
Language : English
Encoded date : UTC 2019-02-10 13:03:37
Tagged date : UTC 2019-02-10 13:22:19
Color primaries : BT.2020
Matrix coefficients : BT.2020 non-constant

Video #2
ID : 3
Format : JPEG
Codec ID : jpeg
Duration : 2h 21mn
Bit rate mode : Variable
Bit rate : 14.4 Kbps
Width : 3 840 pixels
Height : 2 160 pixels
Display aspect ratio : 16:9
Frame rate mode : Variable
Frame rate : 0.003 fps
Minimum frame rate : 0.003 fps
Maximum frame rate : 0.010 fps
Color space : YUV
Chroma subsampling : 4:2:0
Bit depth : 8 bits
Compression mode : Lossy
Bits/(Pixel*Frame) : 0.577
Stream size : 16.5 MiB (0%)
Encoded date : UTC 2019-02-10 13:03:37
Tagged date : UTC 2019-02-10 13:22:19

Audio #1
ID : 4
Format :
Format/Info : Advanced Audio Codec
Format profile : LC
Codec ID : 40
Duration : 2h 21mn
Bit rate mode : Variable
Bit rate : 160 Kbps
Maximum bit rate : 171 Kbps
Channel(s) : 2 channels
Channel positions : Front: L R
Sampling rate : 48.0 KHz
Compression mode : Lossy
Stream size : 162 MiB (0%)
Language : Ukrainian
Encoded date : UTC 2019-02-10 13:03:37
Tagged date : UTC 2019-02-10 13:22:19

Audio #2
ID : 5
Format :
Format/Info : Advanced Audio Codec
Format profile : LC
Codec ID : 40
Duration : 2h 21mn
Bit rate mode : Variable
Bit rate : 161 Kbps
Maximum bit rate : 274 Kbps
Channel(s) : 2 channels
Channel positions : Front: L R
Sampling rate : 48.0 KHz
Compression mode : Lossy
Stream size : 163 MiB (0%)
Language : Ukrainian
Encoded date : UTC 2019-02-10 13:03:37
Tagged date : UTC 2019-02-10 13:22:19

Audio #3
ID : 6
Format : AC-3
Format/Info : Audio Coding 3
Mode extension : CM (complete main)
Format settings, Endianness : Big
Codec ID : ac-3
Duration : 2h 21mn
Bit rate mode : Constant
Bit rate : 640 Kbps
Channel(s) : 6 channels
Channel positions : Front: L C R, Side: L R, LFE
Sampling rate : 48.0 KHz
Bit depth : 16 bits
Compression mode : Lossy
Stream size : 649 MiB (1%)
Language : Ukrainian
Encoded date : UTC 2019-02-10 13:03:37
Tagged date : UTC 2019-02-10 13:22:19

Audio #4
ID : 7
Format :
Format/Info : Advanced Audio Codec
Format profile : LC
Codec ID : 40
Duration : 2h 21mn
Bit rate mode : Variable
Bit rate : 161 Kbps
Maximum bit rate : 274 Kbps
Channel(s) : 2 channels
Channel positions : Front: L R
Sampling rate : 48.0 KHz
Compression mode : Lossy
Stream size : 163 MiB (0%)
Language : Ukrainian
Encoded date : UTC 2019-02-10 13:03:37
Tagged date : UTC 2019-02-10 13:22:19

Audio #5
ID : 8
Format : AC-3
Format/Info : Audio Coding 3
Mode extension : CM (complete main)
Format settings, Endianness : Big
Codec ID : ac-3
Duration : 2h 21mn
Bit rate mode : Constant
Bit rate : 640 Kbps
Channel(s) : 6 channels
Channel positions : Front: L C R, Side: L R, LFE
Sampling rate : 48.0 KHz
Bit depth : 16 bits
Compression mode : Lossy
Stream size : 649 MiB (1%)
Language : Ukrainian
Encoded date : UTC 2019-02-10 13:03:37
Tagged date : UTC 2019-02-10 13:22:19

Audio #6
ID : 9
Format :
Format/Info : Advanced Audio Codec
Format profile : LC
Codec ID : 40
Duration : 2h 21mn
Bit rate mode : Variable
Bit rate : 165 Kbps
Maximum bit rate : 261 Kbps
Channel(s) : 2 channels
Channel positions : Front: L R
Sampling rate : 48.0 KHz
Compression mode : Lossy
Stream size : 168 MiB (0%)
Language : English
Encoded date : UTC 2019-02-10 13:03:37
Tagged date : UTC 2019-02-10 13:22:19

Audio #7
ID : 10
Format : AC-3
Format/Info : Audio Coding 3
Mode extension : CM (complete main)
Format settings, Endianness : Big
Codec ID : ac-3
Duration : 2h 21mn
Bit rate mode : Constant
Bit rate : 384 Kbps
Channel(s) : 6 channels
Channel positions : Front: L C R, Side: L R, LFE
Sampling rate : 48.0 KHz
Bit depth : 16 bits
Compression mode : Lossy
Stream size : 389 MiB (1%)
Language : English
Encoded date : UTC 2019-02-10 13:03:37
Tagged date : UTC 2019-02-10 13:22:19

Text #1
ID : 11
Format : Timed Text
Muxing mode : sbtl
Codec ID : tx3g
Duration : 1h 9mn
Source duration : 2h 21mn
Bit rate mode : Variable
Bit rate : 99 bps
Stream size : 50.7 KiB (0%)
Source stream size : 85.8 KiB (0%)
Language : Ukrainian
Encoded date : UTC 2019-02-10 13:03:37
Tagged date : UTC 2019-02-10 13:22:19
mdhd_Duration : 4184254

Text #2
ID : 12
Format : Timed Text
Muxing mode : sbtl
Codec ID : tx3g
Duration : 1h 10mn
Source duration : 2h 21mn
Bit rate mode : Variable
Bit rate : 64 bps
Stream size : 32.7 KiB (0%)
Source stream size : 55.8 KiB (0%)
Language : English
Encoded date : UTC 2019-02-10 13:03:37
Tagged date : UTC 2019-02-10 13:22:19
mdhd_Duration : 4207338
Скріншоти















Джерело:
Особиста оцінка: 10 - без зайвих вагань рекомендую всім!



Реліз підготовлений для перегляду в iTunes , Apple TV 4k
Для перегляду данного релізу на PC рекомендується iTunes for Windows або VLC media player


Золотий реліз (завантажене не впливає на рейтинг)
 Трекер:    Зареєстрований   

Завантажити / скачати фільм українською



відео для новачків



 Зареєстрований:   2019-02-17 23:53
 Розмір:   61.46 GB 
 Оцінка фільму:   10/10 (Голосів: 3)
   
igor911 
Модератор відео


З нами з: 18.01.08
Востаннє: 14.10.19
Повідомлень: 13519

2019-02-18 15:40  
Цитата:
Аудіо # 4:
кодек: 5.1
кодек: 2.0

в контейнері 7 аудіодоріжок, аналогічно розпишіть в описі.

geroyasfalta 
Свій


З нами з: 20.06.11
Востаннє: 10.10.19
Повідомлень: 92

2019-07-16 15:30  
Дарма качав 60 гіг.Всі переклади однакові від К1 ( Качав з-за Нового каналу 640кбіт..
Neolo 
Свій


З нами з: 13.11.10
Востаннє: 15.10.19
Повідомлень: 90

2019-09-25 06:57  

Архівовано на DC++ хабі Толока (сід "Схованка-1" 24/7)

Магніт (для клієнта Eiskalt - CTRL+I): magnet:?xt=urn:tree:tiger:XOOGUU7JVVEZLL5DDIHFPJLDJOOAHNJVTFVJR4A&xl=65992276543&dn=Harry+Potter+and+the+Prisoner+of+Azkaban+(UHD).m4v
Або CTRL+S в клієнті і виконати пошук за хешом чи безпосередньо за іменем файла.

Інтерактивний чат, шари та роздачі. Тестовий проект. Як приєднатися: https://toloka.to/t103590

Ваш часовий пояс: GMT + 2 Години

Нова тема   Відповісти