Був собі Дедпул / Once Upon A Deadpool (2018) 1080p Ukr/Eng | Sub Ukr/Eng

Нові коментарі

Нова тема   Відповісти
Автор Повідомлення
staf777 
Відео Гуртом - підтримка та поширення
Відео Гуртом - підтримка та поширення


З нами з: 16.11.16
Востаннє: 25.04.19
Повідомлень: 2286

2019-02-17 22:21  
Був собі Дедпул / Once Upon A Deadpool (2018) 1080p Ukr/Eng | Sub Ukr/Eng



«Казково пристойна версія»



Жанр: бойовик, комедія, фантастика
Країна: США



Кінокомпанія: Donners' Company, Kinberg Genre, Marvel Entertainment
Режисер: Девід Літч
Актори: Раян Рейнольдс, Джош Бролін, Морена Баккарін, Бріанна Хілдебранд, ТіДжей Міллер

Сюжет:
Адаптована для глядачів віку 12+ редакція фільму «Дедпул 2», де Дедпулу буде допомагати новий помічник Фред.


Тривалість: 01:51:41
Якість: 1080p

Відео:
кодек:
розмір кадру: 1920x804
бітрейт: 13 Mб/с

Аудіо # 1:
мова: українська
переклад: професійний дубльований
кодек: 2.0
бітрейт: 192 кб/с

Аудіо # 2:
мова: англійська
переклад: оригінал
кодек: 5.1
бітрейт: 640 кб/с

Субтитри (Forced, Full):
мова: українська
тип: програмні (м'які)
формат: *.srt

Субтитри (Full, SDH):
мова: англійська
тип: програмні (м'які)
формат: *.srt
Info
Код:

General
Unique ID                   : 98946574843651683123040188438638180889 (0x4A706AC9984BCC3B7EB5598E4E073A19)
Complete name               : S:\» HD українською » Фільми в HD\Комедія\Once Upon A Deadpool (2018) 1080p [UKR_ENG] [Hurtom].
Format                      :
Format version              : Version 4
File size                   : 11.4 GiB
Duration                    : 1 h 57 min
Overall bit rate            : 13.8 Mb/s
Movie name                  : Once Upon A Deadpool (2018) 1080p [UKR_ENG] [Hurtom]
Encoded date                : UTC 2019-02-17 19:37:17
Writing application         : v30.1.0 ('Forever And More') 64-bit
Writing library             : libebml v1.3.6 + v1.4.9
Cover                       : Yes
Attachments                 : cover.jpg

Video
ID                          : 1
Format                      : AVC
Format/Info                 : Advanced Video Codec
Format profile              : [email protected]
Format settings             : CABAC / 5 Ref Frames
Format settings, CABAC      : Yes
Format settings, ReFrames   : 5 frames
Codec ID                    : V_MPEG4/ISO/AVC
Duration                    : 1 h 57 min
Bit rate                    : 13.0 Mb/s
Width                       : 1 920 pixels
Height                      : 804 pixels
Display aspect ratio        : 2.40:1
Frame rate mode             : Constant
Frame rate                  : 23.976 (24000/1001) FPS
Color space                 : YUV
Chroma subsampling          : 4:2:0
Bit depth                   : 8 bits
Scan type                   : Progressive
Bits/(Pixel*Frame)          : 0.351
Stream size                 : 10.7 GiB (94%)
Title                       : iFT
Writing library             : core 142 r2431+42 c69a006 tMod [[email protected] X86_64]
Encoding settings           : cabac=1 / ref=5 / deblock=1:-3:-3 / analyse=0x3:0x133 / me=umh / subme=11 / psy=1 / fade_compensate=0.00 / psy_rd=1.05:1.05 / mixed_ref=1 / me_range=48 / chroma_me=1 / trellis=2 / 8x8dct=1 / cqm=0 / deadzone=21,11 / fast_pskip=0 / chroma_qp_offset=-4 / threads=16 / lookahead_threads=2 / sliced_threads=0 / nr=0 / decimate=0 / interlaced=0 / bluray_compat=0 / constrained_intra=0 / fgo=0 / bframes=8 / b_pyramid=2 / b_adapt=2 / b_bias=0 / direct=3 / weightb=1 / open_gop=0 / weightp=2 / keyint=240 / keyint_min=23 / scenecut=40 / intra_refresh=0 / rc_lookahead=240 / rc=2pass / mbtree=0 / bitrate=13000 / ratetol=0.9 / qcomp=0.60 / qpmin=0:0:0 / qpmax=69:69:69 / qpstep=4 / cplxblur=20.0 / qblur=0.5 / vbv_maxrate=62500 / vbv_bufsize=78125 / nal_hrd=none / filler=0 / ip_ratio=1.30 / pb_ratio=1.20 / aq=2:0.60 / aq-sensitivity=10.00 / aq-factor=1.00:1.00:1.00 / aq2=0 / aq3=0
Language                    : English
Default                     : Yes
Forced                      : No
Color range                 : Limited
Color primaries             : BT.709
Transfer characteristics    : BT.709
Matrix coefficients         : BT.709

Audio #1
ID                          : 2
Format                      : AC-3
Format/Info                 : Audio Coding 3
Commercial name             : Dolby Digital
Codec ID                    : A_AC3
Duration                    : 1 h 57 min
Bit rate mode               : Constant
Bit rate                    : 192 kb/s
Channel(s)                  : 2 channels
Channel layout              : L R
Sampling rate               : 48.0 kHz
Frame rate                  : 31.250 FPS (1536 SPF)
Bit depth                   : 16 bits
Compression mode            : Lossy
Stream size                 : 162 MiB (1%)
Language                    : Ukrainian
Service kind                : Complete Main
Default                     : Yes
Forced                      : Yes

Audio #2
ID                          : 3
Format                      : AC-3
Format/Info                 : Audio Coding 3
Commercial name             : Dolby Digital
Codec ID                    : A_AC3
Duration                    : 1 h 57 min
Bit rate mode               : Constant
Bit rate                    : 640 kb/s
Channel(s)                  : 6 channels
Channel layout              : L R C LFE Ls Rs
Sampling rate               : 48.0 kHz
Frame rate                  : 31.250 FPS (1536 SPF)
Bit depth                   : 16 bits
Compression mode            : Lossy
Stream size                 : 539 MiB (5%)
Title                       : Original
Language                    : English
Service kind                : Complete Main
Default                     : No
Forced                      : No

Text #1
ID                          : 4
Format                      : UTF-8
Codec ID                    : S_TEXT/UTF8
Codec ID/Info               : UTF-8 Plain Text
Duration                    : 1 h 56 min
Bit rate                    : 1 b/s
Count of elements           : 34
Stream size                 : 1.20 KiB (0%)
Language                    : Ukrainian
Default                     : Yes
Forced                      : Yes

Text #2
ID                          : 5
Format                      : UTF-8
Codec ID                    : S_TEXT/UTF8
Codec ID/Info               : UTF-8 Plain Text
Duration                    : 1 h 56 min
Bit rate                    : 105 b/s
Count of elements           : 1868
Stream size                 : 90.3 KiB (0%)
Language                    : Ukrainian
Default                     : No
Forced                      : No

Text #3
ID                          : 6
Format                      : UTF-8
Codec ID                    : S_TEXT/UTF8
Codec ID/Info               : UTF-8 Plain Text
Duration                    : 1 h 56 min
Bit rate                    : 67 b/s
Count of elements           : 1841
Stream size                 : 57.9 KiB (0%)
Language                    : English
Default                     : No
Forced                      : No

Text #4
ID                          : 7
Format                      : UTF-8
Codec ID                    : S_TEXT/UTF8
Codec ID/Info               : UTF-8 Plain Text
Duration                    : 1 h 56 min
Bit rate                    : 77 b/s
Count of elements           : 2313
Stream size                 : 66.7 KiB (0%)
Language                    : English
Default                     : No
Forced                      : No

Menu
00:00:00.000                : :Capítulo 01
00:04:07.205                : :Capítulo 02
00:06:13.456                : :Capítulo 03
00:11:31.524                : :Capítulo 04
00:15:12.662                : :Capítulo 05
00:18:35.323                : :Capítulo 06
00:20:51.834                : :Capítulo 07
00:24:33.555                : :Capítulo 08
00:25:54.928                : :Capítulo 09
00:28:19.072                : :Capítulo 10
00:32:40.876                : :Capítulo 11
00:36:23.598                : :Capítulo 12
00:39:48.219                : :Capítulo 13
00:42:27.086                : :Capítulo 14
00:45:29.518                : :Capítulo 15
00:49:04.942                : :Capítulo 16
00:52:19.762                : :Capítulo 17
00:54:50.662                : :Capítulo 18
00:56:33.557                : :Capítulo 19
00:58:21.123                : :Capítulo 20
01:03:27.053                : :Capítulo 21
01:07:02.810                : :Capítulo 22
01:12:23.756                : :Capítulo 23
01:17:15.756                : :Capítulo 24
01:20:19.314                : :Capítulo 25
01:23:45.729                : :Capítulo 26
01:25:43.430                : :Capítulo 27
01:28:30.889                : :Capítulo 28
01:29:58.393                : :Capítulo 29
01:31:31.736                : :Capítulo 30
01:33:04.204                : :Capítulo 31
01:36:22.443                : :Capítulo 32
01:39:00.893                : :Capítulo 33
01:42:45.368                : :Capítulo 34
01:46:28.799                : :Capítulo 35
01:56:51.004                : :Capítulo 36



Підтримати купівлю інших фільмів можна тут.

Подяка пану AngryBirdsUA за доріжку.
Дякую 11FrYkT за допомогу
Джерело:
Особиста оцінка: 0 - не дивився


 Трекер:    Зареєстрований   

Завантажити / скачати фільм українською



відео для новачків



 Зареєстрований:   2019-02-17 22:47
 Розмір:   11.37 GB 
 Оцінка фільму:   8.3/10 (Голосів: 12)
   
Форкуш 
VIP


З нами з: 03.02.10
Востаннє: 25.04.19
Повідомлень: 2397

2019-02-18 00:26  
імдб не вірне
Ваш часовий пояс: GMT + 2 Години

Нова тема   Відповісти