День Шакала / The Day of the Jackal (1973) Remux 1080p Ukr/Eng | Sub Eng

Нові коментарі

Нова тема   Відповісти
Автор Повідомлення
MakRA 
VIP


З нами з: 10.11.18
Востаннє: 20.11.19
Повідомлень: 528

2019-02-17 17:55  
День Шакала / The Day of the Jackal (1973) Remux 1080p Ukr/Eng | Sub Eng

День Шакала / The Day of the Jackal (1973) Remux 1080p Ukr/Eng | Sub Eng


Український постер:



Жанр: трилер, кримінальний, драма
Країна: Велика Британія, Франція



Кінокомпанія: Warwick Film Productions, Universal Productions France
Режисер: Фред Ціннеман [Fred Zinnemann]
Актори: Едвард Фокс [Edward Fox], Майкл Лонсдейл [Michael Lonsdale], Сіріл К'юсак [Cyril Cusack], Дельфін Сейріг [Delphine Seyrig], Філіп Леотар [Philippe Léotard], Теренс Александер [Terence Alexander], Мішель Оклер [Michel Auclair], Алан Бедел [Alan Badel], Тоні Бріттон [Tony Britton], Деніс Кері [Denis Carey], Адріан Кайла-Леґран [Adrien Cayla-Legrand], Моріс Денем [Maurice Denham], Жак Франсуа [], Вернон Добчеф [Vernon Dobtcheff], Ольга Жорж-Піко [Olga Georges-Picot].

Сюжет:
Таємна військова організація ОАС, що бореться проти уряду генерала Шарля де Голля, організовує на нього замах. Проте акція зривається, а її керівник, полковник Бастьєн-Тері, розстріляний за вироком суду. Тоді лідери ОАС вирішують найняти кілера-одинака. Спеціально з іншої країни запрошено майстра своєї справи, загадкового вбивцю Шакала. Він розумний, небезпечний і невловимий, але у Франції є інтелект його рівня - комісар поліції Лебель, який відстає від Шакала всього на один крок…
На основі однойменого роману Фредеріка Форсайта.

Нагороди та номінації:


Премія "Оскар" (1974)

Номінація (1)
Найкращий монтаж фільму (Ральф Кемплен)

Золотий глобус (1974)

Номінація (3)

Найкращий фільм-драма ("День Шакала")
Найкращий режисер (Фред Циннеманн)
Найкращий сценарій (Кеннет Росс)

Премія BAFTA (1974)

Номінація (6)

Найкращий фільм ("День Шакала")
Найкраща режисерська робота (Фред Циннеманн)
Найкращий сценарій (Кеннет Росс)
Найкращий актор другого плану (Майкл Лонсдейл)
Найкраща акторка другого плану (Дельфін Сейріг)
Найкращий саундтрек до фільму (Ніколас Стефенсон, Боб Аллен)

Нагорода (1)

Найкращий монтаж фільму (Ральф Кемплен)


Тривалість: 02:22:30
Якість: Remux 1080p
Відео:
кодек:
розмір кадру: 1920 х 1080
бітрейт: 28.2 Mb/s

Аудіо # 1:
мова: українська
переклад: багатоголосий закадровий [ICTV]
кодек: 2.0
бітрейт: 192 kb/s
Про озвучення:

Ролі озвучили:Людмила Суслова, Олексій Богданович та Анатолій Барчук.
Аудіо # 2:
мова: англійська
переклад: оригінал
кодек: LPCM 2.0
бітрейт: 1 536 kb/s

Субтитри:
мова: англійська
тип: пререндерні
формат: *.pgs
Info
General
Unique ID : 9571856354491821376560647296036832583 (0x73378F44B92229DB97D0350398F0547)
Complete name : F:\Триллери, кримінал\The Day of the Jackal (1973) Remux 1080p UkrEng Sub Eng [Hurtom].
Format :
Format version : Version 4 / Version 2
File size : 29.6 GiB
Duration : 2 h 22 min
Overall bit rate mode : Variable
Overall bit rate : 29.8 Mb/s
Movie name : День Шакала / The Day of the Jackal (1973) Remux 1080p Ukr/Eng | Sub Eng [Hurtom]
Encoded date : UTC 2019-02-17 08:06:44
Writing application : v25.0.0 ('Prog Noir') 64-bit
Writing library : libebml v1.3.6 + v1.4.9

Video
ID : 1
Format : AVC
Format/Info : Advanced Video Codec
Format profile : [email protected]
Format settings, CABAC : Yes
Format settings, RefFrames : 2 frames
Format settings, GOP : M=1, N=5
Codec ID : V_MPEG4/ISO/AVC
Duration : 2 h 22 min
Bit rate mode : Variable
Bit rate : 28.2 Mb/s
Width : 1 920 pixels
Height : 1 080 pixels
Display aspect ratio : 16:9
Frame rate mode : Constant
Frame rate : 23.976 (24000/1001) FPS
Color space : YUV
Chroma subsampling : 4:2:0
Bit depth : 8 bits
Scan type : Progressive
Bits/(Pixel*Frame) : 0.568
Stream size : 27.9 GiB (94%)
Title : The Day of the Jackal (1973) Remux 1080p Ukr/Eng | Sub Eng [Hurtom]
Language : Ukrainian
Default : Yes
Forced : Yes

Audio #1
ID : 2
Format : AC-3
Format/Info : Audio Coding 3
Format settings, Endianness : Big
Codec ID : A_AC3
Duration : 2 h 22 min
Bit rate mode : Constant
Bit rate : 192 kb/s
Channel(s) : 2 channels
Channel positions : Front: L R
Sampling rate : 48.0 kHz
Frame rate : 31.250 FPS (1536 SPF)
Bit depth : 16 bits
Compression mode : Lossy
Stream size : 196 MiB (1%)
Title : MVO [ICTV]
Language : Ukrainian
Service kind : Complete Main
Default : Yes
Forced : Yes

Audio #2
ID : 3
Format : PCM
Codec ID : A_PCM/INT/LIT
Duration : 2 h 22 min
Bit rate mode : Constant
Bit rate : 1 536 kb/s
Channel(s) : 2 channels
Sampling rate : 48.0 kHz
Frame rate : 200.000 FPS (240 SPF)
Bit depth : 16 bits
Stream size : 1.53 GiB (5%)
Title : Original
Language : English
Default : No
Forced : No

Text
ID : 4
Format : PGS
Muxing mode : zlib
Codec ID : S_HDMV/PGS
Codec ID/Info : Picture based subtitle format used on BDs/HD-DVDs
Duration : 2 h 20 min
Bit rate : 37.2 kb/s
Count of elements : 2156
Stream size : 37.3 MiB (0%)
Title : Eng
Language : English
Default : No
Forced : No
Скріншоти
Джерело: &
Подяка п.Tanat13 за запис звуку та п.Gelios за українізований постер

Особиста оцінка: 10 - без зайвих вагань рекомендую всім!



Золотий реліз (завантажене не впливає на рейтинг)
 Трекер:    Зареєстрований   

Завантажити / скачати фільм українською



відео для новачків



 Зареєстрований:   2019-02-17 17:55
 Розмір:   29.64 GB 
 Оцінка фільму:   10/10 (Голосів: 6)
   
Інші релізи
   День Шакала / The Day of the Jackal (1973) Ukr/Eng | Sub Eng omm  2 / 0   1.99 GB   2017-08-28 15:21 
MakRA 
VIP


З нами з: 10.11.18
Востаннє: 20.11.19
Повідомлень: 528

2019-02-17 18:49  
Доволі непогана екранізація однойменного роману. Читав пару раз у 90-х, збірка "Політичний детектив". Один з тих фільмів, де акцент робиться не на екшені, а на деталях, тому декому може видатися затягнутим.
Але, як на мене, це краще, ніж вільна інтерпретація, чим часто "грішать" режисери, в гонитві за касовими зборами. Все таких у 50-70х роках екранізаціїї робили максимально наближено до книг Happy
(Моя особиста думка)

+380954897458 
VIP


З нами з: 02.06.17
Востаннє: 19.11.19
Повідомлень: 484

2019-02-18 10:56  
MakRA
Я не знаю де ви знаходите час для книг. Відтоді як закінчив школу, зовсім не маю часу на книги.
Чи можна менший розмір? Завантажив би для колекції. Такі фільми треба мати в колекції.

MakRA 
VIP


З нами з: 10.11.18
Востаннє: 20.11.19
Повідомлень: 528

2019-02-18 11:56  
+380954897458
Ну, таке було раніше, тоді дійсно багато читав) Зараз також часу катастрофічно не вистачає.
З приводу меншого розміру, я точно не робитиму, можливо -Star-Lord- захоче зробити 1080р міні, або 720р

Ваш часовий пояс: GMT + 2 Години

Нова тема   Відповісти