Стрибок угору / Rebound (2005) 1080p Ukr/Eng | Sub Eng

Нові коментарі

Нова тема   Відповісти
Автор Повідомлення
xslim 
Відео Гуртом - фільмокрай
Відео Гуртом - фільмокрай


З нами з: 05.03.09
Востаннє: 20.04.19
Повідомлень: 990

2019-02-17 14:39  
Стрибок угору / Rebound (2005) 1080p Ukr/Eng | Sub Eng

Стрибок угору / Rebound (2005) 1080p Ukr/Eng | Sub Eng


Жанр: комедія, сімейний, спортивний
Країна: США



Кінокомпанія: Twentieth Century Fox Film Corporation, Robert Simonds Productions, Runteldat Entertainment
Режисер: Стів Карр
Актори: Мартін Лоуренс, Венді Ракель Робінсон, Брекін Маєр, Гораціо Санз, Оен Вільямс, Патрік Варбутон, Меган Муллалі, Едді Мартін, Стівен Крістофер Паркер, Стівен Ентоні Лоуренс, Логан МакЕлрой, Гус Хоффман, Тара Коре-МакМуллен, Емі Брукнер, Алія Шавкат.

Сюжет:
Тренер коледжу з баскетболу Рой Маккормік залишився без команди. Він дозволив собі спалах гніву під час гри і вилетів з роботи. Тепер він змушений тренувати шкільну команду, його підопічні - суцільно лузери і невдахи. Але Рой не опускає рук - він планує створити по-справжньому чудову команду ...


Тривалість: 01:26:37
Якість: 1080p [AMZN]

Відео:
кодек:
розмір кадру: 1920 х 1080
бітрейт: 13,6 Мб/с

Аудіо # 1:
мова: українська
переклад: багатоголосий закадровий
кодек: 2.0
бітрейт: 192 кб/с

Аудіо # 2:
мова: англійська
переклад: оригінал
кодек: E- 5.1
бітрейт: 640 кб/с

Джерело озвучення:


Субтитри # 1-2 (Full, SDH):
мова: англійська
тип: програмні (м'які)
формат: *.srt
Info
General
Unique ID : 61734020290069531027115488394110647921 (0x2E718A321034C0FF871A0748C5113E71)
Complete name : D:\Rebound 2005 [Ukr,Eng] AMZN 1080p [toloka.to] by Palamar.
Format :
Format version : Version 4 / Version 2
File size : 8.92 GiB
Duration : 1h 26mn
Overall bit rate mode : Variable
Overall bit rate : 14.7 Mbps
Encoded date : UTC 2019-02-17 10:47:51
Writing application : v31.0.0 ('Dolores In A Shoestand') 64-bit
Writing library : libebml v1.3.6 + v1.4.9
DURATION : 01:26:37.888000000
NUMBER_OF_FRAMES : 162434
NUMBER_OF_BYTES : 124749312
_STATISTICS_WRITING_APP : v31.0.0 ('Dolores In A Shoestand') 64-bit
_STATISTICS_WRITING_DATE_UTC : 2019-02-17 10:47:51
_STATISTICS_TAGS : BPS DURATION NUMBER_OF_FRAMES NUMBER_OF_BYTES

Video
ID : 1
Format : AVC
Format/Info : Advanced Video Codec
Format profile : [email protected]
Format settings, CABAC : Yes
Format settings, ReFrames : 4 frames
Codec ID : V_MPEG4/ISO/AVC
Duration : 1h 26mn
Bit rate mode : Variable
Bit rate : 13.6 Mbps
Maximum bit rate : 15.0 Mbps
Width : 1 920 pixels
Height : 1 080 pixels
Display aspect ratio : 16:9
Frame rate mode : Constant
Frame rate : 23.976 fps
Color space : YUV
Chroma subsampling : 4:2:0
Bit depth : 8 bits
Scan type : Progressive
Bits/(Pixel*Frame) : 0.274
Stream size : 8.24 GiB (92%)
Writing library : core 148 r2623 d5b2374
Encoding settings : cabac=1 / ref=4 / deblock=1:-1:-1 / analyse=0x3:0x133 / me=umh / subme=9 / psy=1 / psy_rd=1.00:0.15 / mixed_ref=1 / me_range=24 / chroma_me=1 / trellis=2 / 8x8dct=1 / cqm=0 / deadzone=21,11 / fast_pskip=1 / chroma_qp_offset=-3 / threads=34 / lookahead_threads=5 / sliced_threads=0 / nr=150 / decimate=1 / interlaced=0 / bluray_compat=0 / constrained_intra=0 / bframes=8 / b_pyramid=2 / b_adapt=2 / b_bias=0 / direct=3 / weightb=1 / open_gop=0 / weightp=2 / keyint=120 / keyint_min=61 / scenecut=0 / intra_refresh=0 / rc_lookahead=120 / rc=crf / mbtree=1 / crf=18.0 / qcomp=0.60 / qpmin=0 / qpmax=69 / qpstep=4 / vbv_maxrate=15000 / vbv_bufsize=31250 / crf_max=0.0 / nal_hrd=vbr / filler=0 / ip_ratio=1.40 / aq=3:1.00
Language : English
Default : Yes
Forced : No
Color range : Limited
Color primaries : BT.709
Transfer characteristics : BT.709
Matrix coefficients : BT.709

Audio #1
ID : 2
Format : AC-3
Format/Info : Audio Coding 3
Mode extension : CM (complete main)
Format settings, Endianness : Big
Codec ID : A_AC3
Duration : 1h 26mn
Bit rate mode : Constant
Bit rate : 192 Kbps
Channel(s) : 2 channels
Channel positions : Front: L R
Sampling rate : 48.0 KHz
Bit depth : 16 bits
Compression mode : Lossy
Stream size : 119 MiB (1%)
Title : TET
Language : Ukrainian
Default : Yes
Forced : No

Audio #2
ID : 3
Format : E-AC-3
Format/Info : Audio Coding 3
Format settings, Endianness : Big
Codec ID : A_EAC3
Duration : 1h 26mn
Bit rate mode : Constant
Bit rate : 640 Kbps
Channel(s) : 6 channels
Channel positions : Front: L C R, Side: L R, LFE
Sampling rate : 48.0 KHz
Compression mode : Lossy
Stream size : 397 MiB (4%)
Language : English
Default : No
Forced : No

Text #1
ID : 4
Format : UTF-8
Codec ID : S_TEXT/UTF8
Codec ID/Info : UTF-8 Plain Text
Language : English
Default : No
Forced : No

Text #2
ID : 5
Format : UTF-8
Codec ID : S_TEXT/UTF8
Codec ID/Info : UTF-8 Plain Text
Title : SDH
Language : English
Default : No
Forced : No

Menu
00:00:00.000 : en:Studio Logo
00:00:21.000 : en:Roy Coaches and Loses His Temper, Opening Credits
00:05:37.000 : en:The NCBA Vice President Bans Roy from His League
00:07:10.000 : en:Keith Heads to School
00:10:16.000 : en:Smelters Play against the Knights
00:12:31.000 : en:Keith and His Friends Watch Roy Being Interviewed
00:14:04.000 : en:Tim and Roy Meet with Walsh to Discuss the Offer
00:16:24.000 : en:Walsh Introduces Roy to the Smelters
00:18:52.000 : en:Jeanie Is Not Happy about Roy Coaching the Basketball Team
00:20:35.000 : en:Roy Assures Jeanie of His Behavior
00:22:51.000 : en:Smelters Play against Vikings and Roy Is Embarrassed
00:26:59.000 : en:Roy Is Made Fun of on Television and Gets a Visit from a Fan
00:28:37.000 : en:Roy Attempts to Get Smelters into Shape
00:32:41.000 : en:Roy Introduces the New Recruits to the Team
00:35:59.000 : en:Smelters Play against the Falcons and Wes Makes His Debut
00:39:41.000 : en:Roy Coaches and Motivates His Team
00:44:25.000 : en:Roy Teaches the Team the Importance of Communicating
00:46:36.000 : en:Roy and Keith Sort out Their Differences
00:50:15.000 : en:Roy Drives the Team to a Road Game and Gives One Love a Present
00:54:09.000 : en:Smelters Play against the Pioneers
00:59:07.000 : en:Smelters Make Roy Stick to His Promise
00:59:56.000 : en:Big Mac and Wes Start to Get Along
01:02:06.000 : en:Smelters Play in New Uniforms
01:04:09.000 : en:Girls Flirt with Wes
01:05:28.000 : en:Roy Shows up for Dinner with Jeanie
01:07:29.000 : en:Tim Takes Roy to the NCBA Review
01:10:04.000 : en:The NCBA Vice President Offers Roy His Job Back
01:12:06.000 : en:Roy Rushes to Make it to the Game
01:14:54.000 : en:Smelters Play against Vikings for the Championship
01:17:57.000 : en:Smelters Try to Even the Score
01:22:35.000 : en:End Credits
Скріншоти







Джерело:
Особиста оцінка: 8 - мені сподобалося

Запис із ТБ, робота зі звуком: xSlim


 Трекер:    Зареєстрований   

Завантажити / скачати фільм українською



відео для новачків



 Зареєстрований:   2019-02-17 14:39
 Розмір:   8.92 GB 
 Оцінка фільму:   9.2/10 (Голосів: 5)
   
Інші релізи
   Стрибок угору / Rebound (2005) MutuLI  3 / 0   1.27 GB   2011-08-06 20:08 
xslim 
Відео Гуртом - фільмокрай
Відео Гуртом - фільмокрай


З нами з: 05.03.09
Востаннє: 20.04.19
Повідомлень: 990

2019-02-17 15:10  
Фільм можна завантажити також і тут - https://drive.google.com/open?id=1ixMeil5ANVpmFROPba3v7DcfJrLps2ba
В мене просто пам'яті мало і скоро його видалю, а так буде де його завантажити.

Electroz 
Відео Гуртом - підтримка та поширення
Відео Гуртом - підтримка та поширення


З нами з: 18.09.14
Востаннє: 20.04.19
Повідомлень: 3265

2019-02-17 15:40  
del
xslim 
Відео Гуртом - фільмокрай
Відео Гуртом - фільмокрай


З нами з: 05.03.09
Востаннє: 20.04.19
Повідомлень: 990

2019-02-21 00:40  
Фільм я в себе вже видалив бо потрібна пам'ять тож вантажте з drive.google та ставайте на роздачу.
Ваш часовий пояс: GMT + 2 Години

Нова тема   Відповісти