ВВС: Таємне життя хаосу / BBC: The Secret Life of Chaos (2010) 1080p Ukr/Eng | Sub Ukr/Eng

Нові коментарі

Нова тема   Відповісти
Автор Повідомлення
Anonymous 







2019-02-17 11:35  
ВВС: Таємне життя хаосу / BBC: The Secret Life of Chaos (2010) 1080p Ukr/Eng | Sub Ukr/Eng

ВВС: Таємне життя хаосу / BBC: The Secret Life of Chaos (2010) 1080p Ukr/Eng | Sub Ukr/Eng

Жанр: документальний
Країна: Великобританія

Телеканал / кіностудія: BBC Four
Актори: Вчені

Сюжет:
Цей фільм історія із серії дивних і взаємозалежних відкриттів, які виявили приховане обличчя природи. Це про те, як нежива матерія, без мети або проекту, може спонтанно створити вишукану красу. Мова йде про ті закони, які роблять світ хаотичним і непередбачуваним, та перетворюють простий пил в людську істоту. Ви дізнаєтеся про дивовижну красу в порядоку і безладі та про те,як комп'ютери можуть моделювати еволюцію.

Тривалість: 00:59:35
Якість:
Відео:
кодек:
розмір кадру: 1920 x 1080
бітрейт: 12 628 кб/с

Аудіо # 1:
мова: українська
переклад: одноголосий закадровий | Da Vinci Learning
кодек: AC-3 2.0
бітрейт: 128 кб/с

Аудіо # 2:
мова: англійська
переклад: оригінал
кодек: E-AC-3 2.0
бітрейт: 224 кб/с

Субтитри # 1:
мова: українська (Full - By advokat & GalinaBar & Forthefucher),
тип: програмні (м'які)
формат: *.srt

Субтитри # 2:
мова: англійська (Full),
тип: програмні (м'які)
формат: *.srt


Info
Код:
General
Unique ID                                : 31357812354147857995270316131178536759 (0x17974B83D4C2EC89510D0E51F2405F37)
Complete name                            : G:\Video\Series\The Secret Life of Chaos (2009) 1080p [UKR_ENG] [Hurtom].
Format                                   :
Format version                           : Version 4 / Version 2
File size                                : 5.40 GiB
Duration                                 : 59 min 35 s
Overall bit rate                         : 13.0 Mb/s
Movie name                               : The Secret Life of Chaos (2009)
Encoded date                             : UTC 2019-02-17 09:24:51
Writing application                      : v20.0.0 ('I Am The Sun') 64-bit
Writing library                          : libebml v1.3.5 + v1.4.8
Cover                                    : Yes
Attachments                              : Cover.png

Video
ID                                       : 1
Format                                   : AVC
Format/Info                              : Advanced Video Codec
Format profile                           : [email protected]
Format settings                          : CABAC / 4 Ref Frames
Format settings, CABAC                   : Yes
Format settings, ReFrames                : 4 frames
Codec ID                                 : V_MPEG4/ISO/AVC
Duration                                 : 59 min 35 s
Bit rate                                 : 12.6 Mb/s
Width                                    : 1 920 pixels
Height                                   : 1 080 pixels
Display aspect ratio                     : 16:9
Frame rate mode                          : Constant
Frame rate                               : 25.000 FPS
Color space                              : YUV
Chroma subsampling                       : 4:2:0
Bit depth                                : 8 bits
Scan type                                : Progressive
Bits/(Pixel*Frame)                       : 0.244
Stream size                              : 5.26 GiB (97%)
Title                                    : The Secret Life of Chaos (2009)
Language                                 : English
Default                                  : Yes
Forced                                   : No
Color range                              : Limited
Color primaries                          : BT.709
Transfer characteristics                 : BT.709
Matrix coefficients                      : BT.709

Audio #1
ID                                       : 2
Format                                   : AC-3
Format/Info                              : Audio Coding 3
Codec ID                                 : A_AC3
Duration                                 : 59 min 35 s
Bit rate mode                            : Constant
Bit rate                                 : 128 kb/s
Channel(s)                               : 2 channels
Channel positions                        : Front: L R
Sampling rate                            : 48.0 kHz
Frame rate                               : 31.250 FPS (1536 SPF)
Bit depth                                : 16 bits
Compression mode                         : Lossy
Stream size                              : 54.6 MiB (1%)
Title                                    : ОЗ - Da Vinci Learning
Language                                 : Ukrainian
Service kind                             : Complete Main
Default                                  : Yes
Forced                                   : Yes

Audio #2
ID                                       : 3
Format                                   : E-AC-3
Format/Info                              : Enhanced Audio Coding 3
Codec ID                                 : A_EAC3
Duration                                 : 59 min 35 s
Bit rate mode                            : Constant
Bit rate                                 : 224 kb/s
Channel(s)                               : 2 channels
Channel positions                        : Front: L R
Sampling rate                            : 48.0 kHz
Frame rate                               : 187.500 FPS (256 SPF)
Compression mode                         : Lossy
Stream size                              : 95.5 MiB (2%)
Title                                    : Original
Language                                 : English
Service kind                             : Complete Main
Default                                  : No
Forced                                   : No

Text #1
ID                                       : 4
Format                                   : UTF-8
Codec ID                                 : S_TEXT/UTF8
Codec ID/Info                            : UTF-8 Plain Text
Duration                                 : 58 min 48 s
Bit rate                                 : 155 b/s
Count of elements                        : 774
Stream size                              : 66.9 KiB (0%)
Title                                    : Full - By advokat & GalinaBar & Forthefucher
Language                                 : Ukrainian
Default                                  : Yes
Forced                                   : No

Text #2
ID                                       : 5
Format                                   : UTF-8
Codec ID                                 : S_TEXT/UTF8
Codec ID/Info                            : UTF-8 Plain Text
Duration                                 : 58 min 56 s
Bit rate                                 : 88 b/s
Count of elements                        : 999
Stream size                              : 38.1 KiB (0%)
Title                                    : Full
Language                                 : English
Default                                  : No
Forced                                   : No
Світлини





Джерело: & & &
Особиста оцінка: 0 - не дивився


 Трекер:    Зареєстрований   

Завантажити / скачати торрент



відео для новачків



 Зареєстрований:   2019-02-17 11:35
 Розмір:   5.4 GB 
 Оцінка:   9.4/10 (Голосів: 5)
   
zbroyar 
Новенький


З нами з: 21.10.14
Востаннє: 26.10.19
Повідомлень: 6

2019-08-18 01:16  
Чудовий фільм, але наша звукова доріжка затримана на майже 16 сек. Як це виправити?
Ваш часовий пояс: GMT + 2 Години

Нова тема   Відповісти