Ед із телевізора / EDtv (1999) 1080p 2xUkr/Eng | Sub Eng

Нові коментарі

Нова тема   Відповісти
Останній раз роздавалося drop_plz (2019-10-18)
Автор Повідомлення
Anonymous 







2019-02-17 12:28  
Ед із телевізора / EDtv (1999) 1080p 2xUkr/Eng | Sub Eng

Ед із телевізора / EDtv (1999) 1080p 2xUkr/Eng | Sub Eng


Жанр: комедія
Країна: США



Кінокомпанія: Universal Pictures
Режисер: Рон Ховард
Актори: Метью МакКонахі, Дженна Елфмен, Вуді Харрельсон, Саллі Кіркленд, Мартін Ландау, Еллен ДеДженерес, Роб Райнер, Денніс Хоппер, Адам Голдберг, Елізабет Херлі

Сюжет:
Ед Пекурні - звичайний хлопець, що працює у відео-прокаті. Найближче майбутнє в ролі скромного службовця не обіцяє ніяких приємних сюрпризів, і він зважується на ризикований захід. Розуміючи, що втрачати йому нічого, Ед погоджується стати зіркою нового телевізійного шоу.

Життя Еда зніматимуть 24 години на добу без перерви: глядачі стежитимуть за тим, як він працює, їсть, спить і ходить в туалет. Ніхто і не підозрював, що смілива експериментальна телепередача буде надзвичайно популярною, а сам Ед стане національною знаменитістю.


Тривалість: 02:03:11
Якість: 1080p
Відео:
кодек:
розмір кадру: 1 920х1 040
бітрейт: 13.7 Mб/с

Аудіо # 1:
мова: українська
переклад: двоголосий закадровий
кодек: 2.0 (з 5.1)
бітрейт: 192 кб/с

Аудіо # 2:
мова: українська
переклад: багатоголосий закадровий
кодек: 2.0 (з 5.1)
бітрейт: 192 кб/с

Аудіо # 3:
мова: англійська
переклад: оригінал
кодек: 5.1
бітрейт: 1 509 кб/с

Субтитри:
мова: англійська
тип: програмні (м'які)
формат: *.srt
Info
General
Unique ID : 197701476769997888374421631016011684209 (0x94BBEB5EDA5D0649A17F01A98BC1D971)
Complete name : H:\Toloka\2019\EDtv (1999) 1080p.
Format :
Format version : Version 4
File size : 13.4 GiB
Duration : 2 h 3 min
Overall bit rate : 15.6 Mb/s
Encoded date : UTC 2019-02-17 09:13:51
Writing application : v6.1.0 ('Old Devil') built on Mar 4 2013 09:10:42
Writing library : libebml v1.3.0 + v1.4.0

Video
ID : 1
Format : AVC
Format/Info : Advanced Video Codec
Format profile : [email protected]
Format settings : CABAC / 4 Ref Frames
Format settings, CABAC : Yes
Format settings, RefFrames : 4 frames
Codec ID : V_MPEG4/ISO/AVC
Duration : 2 h 3 min
Bit rate : 13.7 Mb/s
Width : 1 920 pixels
Height : 1 040 pixels
Display aspect ratio : 1.85:1
Frame rate mode : Constant
Frame rate : 23.976 (24000/1001) FPS
Color space : YUV
Chroma subsampling : 4:2:0
Bit depth : 8 bits
Scan type : Progressive
Bits/(Pixel*Frame) : 0.287
Stream size : 11.6 GiB (86%)
Writing library : core 152 r2851 ba24899
Encoding settings : cabac=1 / ref=4 / deblock=1:-3:-3 / analyse=0x3:0x113 / me=umh / subme=8 / psy=1 / psy_rd=1.00:0.00 / mixed_ref=1 / me_range=32 / chroma_me=1 / trellis=2 / 8x8dct=1 / cqm=0 / deadzone=21,11 / fast_pskip=1 / chroma_qp_offset=-2 / threads=18 / lookahead_threads=3 / sliced_threads=0 / nr=0 / decimate=1 / interlaced=0 / bluray_compat=0 / constrained_intra=0 / bframes=3 / b_pyramid=2 / b_adapt=2 / b_bias=0 / direct=3 / weightb=1 / open_gop=0 / weightp=2 / keyint=240 / keyint_min=24 / scenecut=40 / intra_refresh=0 / rc_lookahead=50 / rc=2pass / mbtree=1 / bitrate=13738 / ratetol=1.0 / qcomp=0.60 / qpmin=0 / qpmax=69 / qpstep=4 / cplxblur=20.0 / qblur=0.5 / ip_ratio=1.40 / aq=3:0.75
Default : Yes
Forced : No
Statistics Tags Issue : no_variable_data 1970-01-01 00:00:00 / v6.1.0 ('Old Devil') built on Mar 4 2013 09:10:42 2019-02-17 09:13:51
FromStats_BitRate : 13731228
FromStats_Duration : 02:03:11.384000000
FromStats_FrameCount : 177216
FromStats_StreamSize : 12686597539

Audio #1
ID : 2
Format : AC-3
Format/Info : Audio Coding 3
Commercial name : Dolby Digital
Codec ID : A_AC3
Duration : 2 h 3 min
Bit rate mode : Constant
Bit rate : 192 kb/s
Channel(s) : 2 channels
Channel layout : L R
Sampling rate : 48.0 kHz
Frame rate : 31.250 FPS (1536 SPF)
Bit depth : 16 bits
Compression mode : Lossy
Stream size : 169 MiB (1%)
Title : UKR (Новий)
Language : Ukrainian
Service kind : Complete Main
Default : Yes
Forced : Yes

Audio #2
ID : 3
Format : AC-3
Format/Info : Audio Coding 3
Commercial name : Dolby Digital
Codec ID : A_AC3
Duration : 2 h 3 min
Bit rate mode : Constant
Bit rate : 192 kb/s
Channel(s) : 2 channels
Channel layout : L R
Sampling rate : 48.0 kHz
Frame rate : 31.250 FPS (1536 SPF)
Bit depth : 16 bits
Compression mode : Lossy
Stream size : 169 MiB (1%)
Title : UKR (Україна)
Language : Ukrainian
Service kind : Complete Main
Default : No
Forced : No

Audio #3
ID : 4
Format :
Format/Info : Digital Theater Systems
Codec ID : A_DTS
Duration : 2 h 3 min
Bit rate mode : Constant
Bit rate : 1 509 kb/s
Channel(s) : 6 channels
Channel layout : C L R Ls Rs LFE
Sampling rate : 48.0 kHz
Frame rate : 93.750 FPS (512 SPF)
Bit depth : 24 bits
Compression mode : Lossy
Stream size : 1.30 GiB (10%)
Title : ENG
Language : English
Default : No
Forced : No
Statistics Tags Issue : no_variable_data 1970-01-01 00:00:00 / v6.1.0 ('Old Devil') built on Mar 4 2013 09:10:42 2019-02-17 09:13:51
FromStats_BitRate : 1509000
FromStats_Duration : 02:03:11.392000000
FromStats_FrameCount : 692943
FromStats_StreamSize : 1394201316

Text #1
ID : 5
Format : UTF-8
Codec ID : S_TEXT/UTF8
Codec ID/Info : UTF-8 Plain Text
Title : ENG
Language : English
Default : No
Forced : No
Statistics Tags Issue : no_variable_data 1970-01-01 00:00:00 / v6.1.0 ('Old Devil') built on Mar 4 2013 09:10:42 2019-02-17 09:13:51
FromStats_BitRate : 80
FromStats_Duration : 01:54:08.550000000
FromStats_FrameCount : 1916
FromStats_StreamSize : 68796

Text #2
ID : 6
Format : UTF-8
Codec ID : S_TEXT/UTF8
Codec ID/Info : UTF-8 Plain Text
Title : ENG (SDH)
Language : English
Default : No
Forced : No
Statistics Tags Issue : no_variable_data 1970-01-01 00:00:00 / v6.1.0 ('Old Devil') built on Mar 4 2013 09:10:42 2019-02-17 09:13:51
FromStats_BitRate : 86
FromStats_Duration : 01:54:28.988000000
FromStats_FrameCount : 2105
FromStats_StreamSize : 74659

Menu
00:00:00.000 : en:00:00:00.000
00:10:04.229 : en:00:10:04.229
00:19:48.396 : en:00:19:48.396
00:30:14.104 : en:00:30:14.104
00:40:06.404 : en:00:40:06.404
00:50:34.573 : en:00:50:34.573
01:00:27.749 : en:01:00:27.749
01:10:06.828 : en:01:10:06.828
01:19:58.252 : en:01:19:58.252
01:29:54.431 : en:01:29:54.431
01:37:29.343 : en:01:37:29.343
01:48:50.482 : en:01:48:50.482
01:55:27.587 : en:01:55:27.587
Скріншоти







За українські доріжки подяка п. NemoInFire
Особиста подяка пану denixx за надану матеріальну допомогу на підтримку цього і майбутніх релізів.
Джерело:


Срібний реліз (на рейтинг впливає 50% завантаженого)
 Трекер:    Зареєстрований   

Завантажити / скачати фільм українською



відео для новачків



 Зареєстрований:   2019-02-17 12:28
 Розмір:   13.45 GB 
 Оцінка фільму:   10/10 (Голосів: 4)
   
Інші релізи
   Ед із телевізора / EDtv (1999) 2xUkr NemoInFire  5 / 0   1.61 GB   2011-08-21 10:15 
Ваш часовий пояс: GMT + 2 Години

Нова тема   Відповісти