Ліга Європи 2018/19 | Огляд матчів 1/16 | -AVC

Нові коментарі

Нова тема   Відповісти
Останній раз роздавалося lokk234 (2020-01-07)
Автор Повідомлення
lokk234 
Новенький


З нами з: 05.03.14
Востаннє: 20.04.20
Повідомлень: 24

2019-02-17 03:35  
Ліга Європи 2018/19 | Огляд матчів 1/16 | -AVC

Ліга Європи 2018/19 | Огляд матчів 1/16 | -AVC


Телеканал: Футбол 2
Опис:
Огляд всіх матчів першого раунду 1/16-й фіналу Ліги Європи, в тому числі, за участю українських команд Динамо та Шахтаря.


Тривалість: 00:47:48
Якість:
Відео:
кодек: MPEG-2
розмір кадру: 1024 х 576
бітрейт: 1620 кб/с

Аудіо:
мова: українська
коментатор: Кирило Круторогов
кодек: 2.0
бітрейт: 224 кб/с
Скріншоти



Info:
General
ID : 1 (0x1)
Complete name : C:\Users\Admin\Documents\UEFA Europa League match Review\
Format : MPEG-TS
File size : 220 MiB
Duration : 47mn 48s
Overall bit rate : 1 924 Kbps

Video
ID : 256 (0x100)
Menu ID : 1 (0x1)
Format : AVC
Format/Info : Advanced Video Codec
Format profile : [email protected]
Format settings, CABAC : Yes
Format settings, ReFrames : 1 frame
Codec ID : 27
Duration : 47mn 48s
Bit rate : 1 620 Kbps
Width : 1024 pixels
Height : 576 pixels
Display aspect ratio : 16:9
Frame rate : 25.000 fps
Standard : PAL
Color space : YUV
Chroma subsampling : 4:2:0
Bit depth : 8 bits
Scan type : Progressive
Bits/(Pixel*Frame) : 0.155
Stream size : 183 MiB (83%)

Audio
ID : 257 (0x101)
Menu ID : 1 (0x1)
Format :
Format/Info : Advanced Audio Codec
Format version : Version 4
Format profile : LC
Muxing mode : ADTS
Codec ID : 15
Duration : 47mn 48s
Bit rate mode : Constant
Bit rate : 224 Kbps
Channel(s) : 2 channels
Channel positions : Front: L R
Sampling rate : 44.1 KHz
Compression mode : Lossy
Delay relative to video : -110ms
Stream size : 25.6 MiB (12%)
Language : Ukrainian

Menu
ID : 4096 (0x1000)
Menu ID : 1 (0x1)
Duration : 47mn 48s
List : 256 (0x100) (AVC) / 257 (0x101) (, Ukrainian)
Language : / Ukrainian
Service name : Service01
Service provider : FFmpeg
Service type : digital television
Джерело:
Особиста оцінка: 8 - мені сподобалося. Актуально для любителів футболу які пропустили трансляції матчів.


 Трекер:    Зареєстрований   

Завантажити / скачати торрент



відео для новачків



 Зареєстрований:   2019-02-17 03:35
 Розмір:   662 MB 
 Оцінка:   10/10 (Голосів: 3)
   
drtato 
Поважний учасник


З нами з: 28.10.10
Востаннє: 18.10.20
Повідомлень: 169

2019-02-17 14:03  
Дякую пане lokk234 ! Дуже корисна штука, бо всі трансляції фізично неможливо переглянути.
Ваш часовий пояс: GMT + 2 Години

Нова тема   Відповісти