Згадати Все / Total Recall [Ultimate Rekall Edition] (1990) Remux 1080p 2xUkr/Eng | Sub Eng

Нові коментарі

Нова тема   Відповісти
Автор Повідомлення
MakRA 
VIP


З нами з: 10.11.18
Востаннє: 19.01.21
Повідомлень: 1167

2019-02-16 19:35  
Згадати Все / Total Recall [Ultimate Rekall Edition] (1990) Remux 1080p 2xUkr/Eng | Sub Eng


«Приготуйтеся до подорожі по власному життю»

Український постер:


Альтернативна обкладинка:

Згадати Все / Total Recall [Ultimate Rekall Edition] (1990) Remux 1080p 2xUkr/Eng | Sub Eng
Жанр: фантастика, екшн
Країна: США



Кінокомпанія: Carolco Pictures, Carolco International N.V.
Режисер: Пол Верговен [Paul Verhoeven]
Актори:Арнольд Шварценеґер (Arnold Schwarzenegger), Шерон Стоун [Sharon Stone], Рейчел Тікотін [Rachel Ticotin], Ронні Кокс [Ronny Cox], Майкл Айронсайд [Michael Ironside], Маршалл Белл [Marshall Bell], Мел Джонсон-молодший [Mel Johnson Jr.], Рой Броксміт [Roy Brocksmith], Рей Бейкер [Ray Baker], Майкл Чемпіон [Michael Champion], Розмарі Дунсмор [Rosemary Dunsmore], Роберт Констанцо [], Люсія Наф [Lycia Naff], Дін Норріс [Dean Norris, Девід Кнелл [David Knell].

Сюжет:
Даґлас Квейд - звичайний роботяга, котрий намагаючись втекти від набридлої реальності, звертається в компанію, що вживляє в пам'ять спогади, багаті різними авантюрами і пригодами.
Але, є один невеликий нюанс - після відвідування цієї фірми головний герой не може зрозуміти хто він...
Щоб дізнатися відповідь, йому необхідно згадати все ...

В основу фільму покладено розповідь відомого американського письменника Філіпа Діка "Продаж спогадів за оптовими цінами". Сценарій розроблявся близько 10 років.
Красива, соковита картина, закручений сюжет і неперевершена гра Шерон Стоун і Арнольда Шварцнегера, екзотичні пейзажі і ландшафти Марса - основні чинники для перегляду.


Перемоги та номінації:
Оскар, 1991 рік
Переможець (1):
Нагорода за особливі досягнення - «за візуальні ефекти»

Номінації (2):
Найкращий звук
Найкращий монтаж звуку

Британська академія, 1977 рік
Номінації (1):
Найкращі візуальні ефекти


Цікаві факти про фільм:


• Коли людина потрапляє у відкритий космос або вакуум, його очі не можуть розірватися, як це показують у фільмі. Людина приблизно 10-20 секунд знаходиться в нормальному стані, завдяки чому може повернутися до безпечного місця. Але навіть якщо він не повернеться, то все ще буде живою протягом приблизно хвилини, хоча і без свідомості. Єдина проблема, яка могла б виникнути - це розрив барабанних перетинок і можлива сліпота (при збереженні очних яблук).
• «Згадати все» - екранізація роману Філіпа К. Діка «Заради вас ми можемо згадати все» про жалюгідного клерка-невдаху Квейла, який мріє потрапити на Марс.
• Сценарій фільму знаходився в розробці 10 років.
• Над сценарієм працював Річард Дрейфус, на іншому етапі - Девід Кроненберґ.
• Кроненберґ написав 12 варіантів сценарію.
• Продюсер фільму Рональд Шуссетт хотів створити «Шукачів втраченого Ковчега», які вирушають на Марс.
• Арнольд Шварценеґер з самого початку хотів отримати головну роль.
• На головну роль також претендували Вільям Герт і Патрік Свйзі.
• Роль режисера була запропонована Брюсу Бересфорду.
• Реалізацією проекту займалася студія Діно Де Лаурентіса. Вже почали будуватися декорації в Австралії, коли компанія Де Лаурентіса збанкрутувала.
• Після того, як за справу взялася Carolco, головну роль віддали Шварценеґеру.
• Після затвердження Арні на роль, миршавий клерк Квейл перетворився на м'язистого будівельного робочого Квейда і був переписаний фінал картини.
• Після перегляду «Робота-поліцейського» Арнольд сам домігся затвердження сценарію, складу знімальної групи і наполіг на тому, щоб режисером фільму був Верговен.
• Даґ Квейд реєструється в готелі під ім'ям Брубейкер. Точно так же звали капітана з «Козерога 1» (1978), де мова йшла про вигадані подорожі на Марс.
• Роберт Пікардо озвучив Джоннікеба, а сам робот був створений на основі зовнішності Роберта.
• Коли Квейд одягнений, як товста жінка, паспорт, який він передає охоронцю, - справжній паспорт Прісцилли Аллен, яка зіграла товсту жінку.
• Сцена в метро знімалася в метрополітені Мехіко Сіті.
• Найбільші рекламні плакати, які можна помітити в сцені, де Квейд виходить з метро, - справжні білборди, які перебували біля станції «Insurgentes» в Мехіко Сіті. Найбільш помітні з них - Fuji Film і Coca Cola.
• Оригінальна версія фільму отримала рейтинг «Х» через надмірне насильство на екрані. В подальшому фільм перемонтували: найбільш жорстокі моменти були вирізані, а також були використані нові ракурси камери. Перестрілка в метро, де Квейд використовує людське тіло як щит від куль, найбільше зазнала додаткового монтажу. Зрештою, фільм отримав рейтинг «R».
• Якщо вірити діаграмі, яку показують Квейду в «Rekall», то з кожним роком космічні подорожі стають менш безпечними.
• Права на екранізацію оповідання були викуплені в 1974 році, проте було потрібно 16 років, щоб фільм врешті-решт дістався до екранів кінотеатрів.
• В металевій валізі Квейда можна помітити пропуск робітника в «Пірамідні рудники» на Марсі.
• Вся знімальна група отримала харчове отруєння під час зйомок, за винятком Арнольда Шварценеґера, який їв виключно їжу, доставлену з США, і Рональда Шусетта, в якого було надмірні заходи особистої гігієни, наприклад, він чистив зуби виключно кип'яченою водою.
• Мініатюрні моделі, що використовувалися для зйомок марсіанських ландшафтів, були зроблені на основі фотографій поверхні Марса.
• Кількість загиблих: 77.
• Кертвуду Сміту пропонували роль Ріхтера, але він відмовився, тому що порахував її дуже схожою на його персонажа в «Робот-поліцейський» (1987).
• Роль Дугласа Квейда була запропонована Крістоферу Ріву.
• У ранніх версіях сценарію головного героя звали Дуглас Квейл, так само як і в оповіданні Філіпа Діка. Однак під час зйомок віце-президентом США був Ден Квейл. Швидше за все, це стало головною причиною зміни імені героя Арнольда Шварценеґера.
• Сцена, в якій доктор Еджмар (Рой Броксміт) пояснює Квейду, що він знаходиться в стані сну, заснована на сцені між Полом Ньюманом і Людвіґом Донатом у фільмі «Розірвана завіса» (1966). Деякі ракурси камери в точності повторюють картину Гічкока.
• Спочатку Річард Раш повинен був поставити картину. Також режисером міг стати Брюс Бересфорд.
• Перестрілка в метро знімалася на станції «Chabacano» в Мехіко Сіті. Єдиним доповненням до природних декорацій стали покажчики і назви станцій на англійській мові.
• Девід Кроненберґ повинен був поставити картину. Для цього він відмовився від крісла режисера у фільмі «Муха» (1986), яку, в свою чергу, повинен був поставити Роберт Біерман. Проте надалі Роберт залишив проект, а Девід через тривалий пре-продакшн також відмовився від режисерських повноважень на «Згадати все» і повернувся до постановки «Мухи».
• Хоча час дії жодного разу не згадується у фільмі, на обкладинках DVD і VHS йдеться про 2084 рік.
• Іспанське назва фільму - «El Vengador Del Futuro», що в дослівному перекладі означає «Майбутній месник».
• Кандидатури Джеффа Бріджеса, Меттью Бродеріка і Річард Дрейфуса розглядалися на роль Квейда.
• За словами монтажника Френка Джей Вріосте, спочатку не передбачалося робити панорамні кадри міста на Марсі, тому що на думку продюсерів, вони були надто витратні і могли привести до перевитрати бюджету. З даною проблемою Френк поділився з Арнольдом Шварценеґером, якому вдалося переконати продюсерів зняти дані сцени.
• У сцені в метро, де Арнольд Шварценеґер розбиває скло вагона і стрибає в поїзд, використовувався невеликий заряд вибухівки. Проте в одному з дублів вибухівка не спрацювала, і Арні насправді розбив скло рукою.
• Знадобилося 15 ляльководів для контролю рухів Куато.
• Назва Куато походить від іспанського слова «cuate», що означає двійник.
• Під час зйомок Шерон Стоун скаржилась Полу Верговену, що вона не впевнена, чи є її героїня уявою Даґа Квейда, або її персонаж насправді одружена з Даґом.
• Коли Квейду показують картинки на моніторі в «Rekall», на одній з них зображений той самий реактор на Марсі.
• Картина закінчується кадром із плавним переходом у білий фон, для того щоб залишити сумніви у глядачів, що все показане у фільмі відбувалося в уяві Квейда, і в кінці фільму він піддався лоботомії.
• Прилад, використовуваний Майклом Чемпіон (Гелм) для визначення місця розташування Квейда, був створений компанією Casio.
• У кінострічці присутні кілька посилань до не менш відомому твору іншого популярного автора - «Автостопом по Галактиці» Дугласа Адамса. Одна з них - рушник, в яке обгорнена голова Квейда під час погоні на Землі. Саме в «Путівнику» було сказано: «Щоб сховатися від переслідувачів, оберніть рушник навколо своєї голови».
• Бюджет - $50,000,000


Тривалість: 01:53:38
Якість: Remux 1080p [Ultimate Rekall Edition] [Holland Transfer]
Відео:
кодек:
розмір кадру: 1920 х 1080
бітрейт: 24 Мб/с

Аудіо # 1:
мова: українська
переклад: багатоголосий закадровий
кодек: 2.0
бітрейт: 192 кб/с

Аудіо # 2:
мова: українська
переклад: двоголосий закадровий
кодек: 2.0
бітрейт: 192 кб/с
Про озвучення:
Аудіо # 3:
мова: українська
переклад: двоголосий закадровий
кодек: 5.1
бітрейт: 448 кб/с
Про озвучення:
Аудіо # 4:
мова: англійська
переклад: оригінал
кодек: -HD MA 5.1
бітрейт: 2083 кб/с

Аудіо # 5:
мова: англійська
переклад: оригінал
кодек: 5.1
бітрейт: 448 кб/с

Аудіо # 6:
мова: англійська
переклад: коментарі актора Арнольда Шварценеггера та режисера Пола Верговена
кодек: 2.0
бітрейт: 192 кб/с

Субтитри # 1: (Full)
мова: англійська
тип: програмні (м'які)
формат: *.srt

Субтитри # 2: (Full)
мова: англійська
тип: пререндерні
формат: *.pgs

Субтитри # 3: (SDH)
мова: англійська
тип: пререндерні
формат: *.pgs

Субтитри # 4: коментарі актора Арнольда Шварценеггера та режисера Пола Верговена
мова: англійська
тип: пререндерні
формат: *.pgs

Субтитри # 5: коментарі кінознавця Джостома Вакано (за участю Марка Крегеля)
мова: англійська
тип: пререндерні
формат: *.pgs

Збережено оригінальні іменовані розділи, як на Blu-ray.
Info
General
Unique ID : 199453970179815718772217253152019364352 (0x960D6FF774A1481BC3747824ADC2BA00)
Complete name : I:\+Фільмографії- Арнольд Шварценеггер [Arnold Alois Schwarzenegger]\Total Recall [Ultimate Rekall Edition] (1990) Remux 1080p 2xUkrEng Sub Eng [Hurtom].
Format :
Format version : Version 4
File size : 21.9 GiB
Duration : 1 h 53 min
Overall bit rate mode : Variable
Overall bit rate : 27.6 Mb/s
Movie name : Згадати Все / Total Recall [Ultimate Rekall Edition] (1990) Remux 1080p 2xUkr/Eng | Sub Eng [Hurtom]
Encoded date : UTC 2020-02-12 07:44:30
Writing application : v25.0.0 ('Prog Noir') 64-bit
Writing library : libebml v1.3.6 + v1.4.9
Cover : Yes
Attachments : cover.jpg / cover.jpg

Video
ID : 1
Format : AVC
Format/Info : Advanced Video Codec
Format profile : [email protected]
Format settings : CABAC / 2 Ref Frames
Format settings, CABAC : Yes
Format settings, Reference fra : 2 frames
Codec ID : V_MPEG4/ISO/AVC
Duration : 1 h 53 min
Bit rate mode : Variable
Bit rate : 24.0 Mb/s
Width : 1 920 pixels
Height : 1 080 pixels
Display aspect ratio : 16:9
Frame rate mode : Constant
Frame rate : 23.976 (24000/1001) FPS
Color space : YUV
Chroma subsampling : 4:2:0
Bit depth : 8 bits
Scan type : Progressive
Bits/(Pixel*Frame) : 0.482
Stream size : 19.0 GiB (87%)
Title : Total Recall [Ultimate Rekall Edition] (1990) Remux 1080p 2xUkr/Eng | Sub Eng [Hurtom]
Language : Ukrainian
Default : Yes
Forced : Yes

Audio #1
ID : 2
Format : AC-3
Format/Info : Audio Coding 3
Commercial name : Dolby Digital
Codec ID : A_AC3
Duration : 1 h 53 min
Bit rate mode : Constant
Bit rate : 192 kb/s
Channel(s) : 2 channels
Channel layout : L R
Sampling rate : 48.0 kHz
Frame rate : 31.250 FPS (1536 SPF)
Compression mode : Lossy
Delay relative to video : 1 s 300 ms
Stream size : 156 MiB (1%)
Title : MVO [NLO.TV] 2.0
Language : Ukrainian
Service kind : Complete Main
Default : Yes
Forced : Yes

Audio #2
ID : 3
Format : AC-3
Format/Info : Audio Coding 3
Commercial name : Dolby Digital
Codec ID : A_AC3
Duration : 1 h 53 min
Bit rate mode : Constant
Bit rate : 192 kb/s
Channel(s) : 2 channels
Channel layout : L R
Sampling rate : 48.0 kHz
Frame rate : 31.250 FPS (1536 SPF)
Compression mode : Lossy
Delay relative to video : 1 s 300 ms
Stream size : 156 MiB (1%)
Title : DVO [1+1] 2.0
Language : Ukrainian
Service kind : Complete Main
Default : No
Forced : No

Audio #3
ID : 4
Format : AC-3
Format/Info : Audio Coding 3
Commercial name : Dolby Digital
Codec ID : A_AC3
Duration : 1 h 53 min
Bit rate mode : Constant
Bit rate : 448 kb/s
Channel(s) : 6 channels
Channel layout : L R C LFE Ls Rs
Sampling rate : 48.0 kHz
Frame rate : 31.250 FPS (1536 SPF)
Compression mode : Lossy
Delay relative to video : 2 s 200 ms
Stream size : 364 MiB (2%)
Title : DVO [1+1] 5.1
Language : Ukrainian
Service kind : Complete Main
Default : No
Forced : No

Audio #4
ID : 5
Format : XLL
Format/Info : Digital Theater Systems
Commercial name : -HD Master Audio
Codec ID : A_DTS
Duration : 1 h 53 min
Bit rate mode : Variable
Bit rate : 2 083 kb/s
Channel(s) : 6 channels
Channel layout : C L R Ls Rs LFE
Sampling rate : 48.0 kHz
Frame rate : 93.750 FPS (512 SPF)
Bit depth : 16 bits
Compression mode : Lossless
Stream size : 1.65 GiB (8%)
Title : Original -HD MA 5.1
Language : English
Default : No
Forced : No

Audio #5
ID : 6
Format : AC-3
Format/Info : Audio Coding 3
Commercial name : Dolby Digital
Codec ID : A_AC3
Duration : 1 h 53 min
Bit rate mode : Constant
Bit rate : 448 kb/s
Channel(s) : 6 channels
Channel layout : L R C LFE Ls Rs
Sampling rate : 48.0 kHz
Frame rate : 31.250 FPS (1536 SPF)
Compression mode : Lossy
Delay relative to video : 1 s 300 ms
Stream size : 364 MiB (2%)
Title : Original 5.1
Language : English
Service kind : Complete Main
Default : No
Forced : No

Audio #6
ID : 7
Format : AC-3
Format/Info : Audio Coding 3
Commercial name : Dolby Digital
Codec ID : A_AC3
Duration : 1 h 53 min
Bit rate mode : Constant
Bit rate : 192 kb/s
Channel(s) : 2 channels
Channel layout : L R
Sampling rate : 48.0 kHz
Frame rate : 31.250 FPS (1536 SPF)
Compression mode : Lossy
Stream size : 156 MiB (1%)
Title : Original 2.0 | Commentary with Arnold Schwarzenegger & Director Paul Verhoeven
Language : English
Service kind : Complete Main
Default : No
Forced : No

Text #1
ID : 8
Format : UTF-8
Codec ID : S_TEXT/UTF8
Codec ID/Info : UTF-8 Plain Text
Duration : 1 h 45 min
Bit rate : 45 b/s
Count of elements : 1058
Stream size : 35.1 KiB (0%)
Title : Eng (Full) SRT
Language : English
Default : No
Forced : No

Text #2
ID : 9
Format : PGS
Muxing mode : zlib
Codec ID : S_HDMV/PGS
Codec ID/Info : Picture based subtitle format used on BDs/HD-DVDs
Duration : 1 h 49 min
Bit rate : 25.3 kb/s
Count of elements : 1739
Stream size : 19.7 MiB (0%)
Title : Eng (Full) PGS
Language : English
Default : No
Forced : No

Text #3
ID : 10
Format : PGS
Muxing mode : zlib
Codec ID : S_HDMV/PGS
Codec ID/Info : Picture based subtitle format used on BDs/HD-DVDs
Duration : 1 h 45 min
Bit rate : 32.6 kb/s
Count of elements : 2267
Stream size : 24.6 MiB (0%)
Title : Eng (SDH)
Language : English
Default : No
Forced : No

Text #4
ID : 11
Format : PGS
Muxing mode : zlib
Codec ID : S_HDMV/PGS
Codec ID/Info : Picture based subtitle format used on BDs/HD-DVDs
Duration : 1 h 53 min
Bit rate : 67.6 kb/s
Count of elements : 3632
Stream size : 54.7 MiB (0%)
Title : Eng (Full) | Commentary with Paul Verhoeven and Arnold Schwarzenegger
Language : English
Default : No
Forced : No

Text #5
ID : 12
Format : PGS
Muxing mode : zlib
Codec ID : S_HDMV/PGS
Codec ID/Info : Picture based subtitle format used on BDs/HD-DVDs
Duration : 1 h 52 min
Bit rate : 53.4 kb/s
Count of elements : 3115
Stream size : 42.9 MiB (0%)
Title : Eng (Full) | Commentary with cinematographer Jost Vacano (assisted by Marko Kregel)
Language : English
Default : No
Forced : No

Menu
00:00:00.000 : en:Opening Credits
00:06:07.491 : en:Awakening From a Nightmare
00:11:43.618 : en:News From Mars
00:18:31.568 : en:Recall
00:25:08.965 : en:Memories
00:29:55.960 : en:A Trained Weapon
00:37:24.659 : en:Escape From Wedded Bliss
00:43:30.232 : en:Subway Shootout
00:48:55.181 : en:On the Run
00:55:22.944 : en:Time Capsule
01:00:24.078 : en:Welcome to Mars
01:15:43.747 : en:The Boss
01:20:37.541 : en:Red-Light District
01:27:28.868 : en:The Last Resort
01:32:41.555 : en:Visitors
01:40:16.010 : en:Run to the Rebels
01:53:36.601 : en:Sealed Off
Скріншоти
Джерело: &
Над доріжками працювали: п. Bohdan237, п. Sando7,п. Romario_O, п. robotron005. За створення доріжки 5.1 подяка п. robotron005
Особиста оцінка: 10 - без зайвих вагань рекомендую всім!



Золотий реліз (завантажене не впливає на рейтинг)
 Трекер:    Зареєстрований   

Завантажити / скачати фільм українською



відео для новачків



 Зареєстрований:   2020-02-12 10:53
 Розмір:   21.89 GB 
 Оцінка фільму:   9.9/10 (Голосів: 35)
   
Інші релізи
   Згадати Все / Total Recall (1990) AVC 2xUkr/Eng | Sub Eng Sando7  5 / 0   3.36 GB   2019-04-18 08:25 
   Згадати Все / Total Recall (1990) mini 1080p H.265 Ukr/Eng | Sub Eng -Star-Lord-  5 / 0   4.42 GB   2018-08-29 09:51 
   Пригадати все / Total Recall (1990) [MP4, 640x] apvAltisimo  0 / 0   731 MB   2016-12-07 14:08 
   Згадати Все / Total Recall (1990) 1080p Ukr/Eng | sub Eng RAD0N  14 / 0   6.44 GB   2016-02-15 10:28 
   Згадати Все / Total Recall (1990) Ukr/Eng robotron005  6 / 0   2.03 GB   2012-02-07 23:48 
   Згадати все / Total Recall (1990) 720p Ukr/Eng | Sub Eng Hurtomivets  2 / 0   8 GB   2011-09-09 17:32 
sanyokfuriv 
Свій


З нами з: 05.07.11
Востаннє: 20.01.21
Повідомлень: 91

2019-02-17 12:37  
піддайте трохи швидкості !
[email protected] 
VIP


З нами з: 24.03.17
Востаннє: 19.01.21
Повідомлень: 646

2019-02-21 21:46  
Моя оцінка 10, чудовий фільм
MakRA 
VIP


З нами з: 10.11.18
Востаннє: 19.01.21
Повідомлень: 1167

2020-02-12 11:47  
Реліз оновлено 12.02.2020
Заміна відео на максимально ремастероване видання Ultimate Rekall Edition (трансфер Нідерланди), додано іменовані розділи, оригінальну доріжку 5.1, аудіо коментарі Арнольда Шварценеггера та Пола Верговена (та субтитри на них) + субтитровані коментарі кінознавця Джостома Вакано

sanyokfuriv 
Свій


З нами з: 05.07.11
Востаннє: 20.01.21
Повідомлень: 91

2020-02-12 12:41  
роздайте !!!
Custo 12 
Поважний учасник


З нами з: 08.11.16
Востаннє: 18.01.21
Повідомлень: 151

2020-02-15 18:14  
Такі хвилюючі спогади з дитинства! Суперкіно!
clavaykraini 
Свій


З нами з: 16.05.14
Востаннє: 20.01.21
Повідомлень: 125

2020-04-24 16:03  
Віддаю перевагу європейському трансферу Anniversary Edition 2010р. Там навіть за бітрейту 17700 kbps, ремукс з дуже якісною картинкою.
RoMeL 
Відео Гуртом - підтримка та поширення
Відео Гуртом - підтримка та поширення


З нами з: 09.07.08
Востаннє: 19.01.21
Повідомлень: 319

2020-12-28 22:20  
збільшість трохи швидість віддачі, бо до нового року не скачаю ))
MakRA 
VIP


З нами з: 10.11.18
Востаннє: 19.01.21
Повідомлень: 1167

2020-12-29 18:01  
RoMeL
Стану на роздачу лише після 22.00

Dr.S 
Поважний учасник


З нами з: 30.05.17
Востаннє: 19.01.21
Повідомлень: 167

2020-12-30 20:28  
поверніться хтось на роздачу будь-ласка на пару днів
sanyokfuriv 
Свій


З нами з: 05.07.11
Востаннє: 20.01.21
Повідомлень: 91

2021-01-10 15:11  
Питання до компетентних:
Чи можна якось відновити сідування цієї роздачі, при умові що сам відео файл на моєму харді було переіменовано і старий торрент файлик видалено? Бо я щойно пробував завантажити заново актуальний торрент файлик і цільову папку вказав де є оригінальний відео файл(тепер вже переіменований так само як і на роздачі у розділі "Список фалів завантаження". Пробував і . в кінці назви і без ., проте всеодно розпочинається пошук сідерів і завантажує відео файл заново... Як бути? Використовую Utorrent 3.5.5

igor911 
Модератор відео


З нами з: 18.01.08
Востаннє: 20.01.21
Повідомлень: 15339

2021-01-10 17:56  
sanyokfuriv написано:
тепер вже переіменований так само як і на роздачі

мабуть ви граєтесь зі старим файлом, облиште.
MakRA написано:
Реліз оновлено 12.02.2020

sanyokfuriv 
Свій


З нами з: 05.07.11
Востаннє: 20.01.21
Повідомлень: 91

2021-01-10 19:05  
igor911
та ні, як раз пам'ятаю що перезавантажував в той же день коли реліз оновився, ось Info -
General
Unique ID : 199453970179815718772217253152019364352 (0x960D6FF774A1481BC3747824ADC2BA00)
Complete name : D:\Фільми\Total Recall [Ultimate Rekall Edition] (1990) Remux 1080p 2xUkrEng Sub Eng [Hurtom].
Format :
Format version : Version 4
File size : 21.9 GiB
Duration : 1 h 53 min
Overall bit rate mode : Variable
Overall bit rate : 27.6 Mb/s
Movie name : Згадати Все / Total Recall [Ultimate Rekall Edition] (1990) Remux 1080p 2xUkr/Eng | Sub Eng [Hurtom]
Encoded date : UTC 2020-02-12 07:44:30
Writing application : v25.0.0 ('Prog Noir') 64-bit
Writing library : libebml v1.3.6 + v1.4.9
Cover : Yes
Attachments : cover.jpg / cover.jpg

Video
ID : 1
Format : AVC
Format/Info : Advanced Video Codec
Format profile : [email protected]
Format settings : CABAC / 2 Ref Frames
Format settings, CABAC : Yes
Format settings, Reference : 2 frames
Codec ID : V_MPEG4/ISO/AVC
Duration : 1 h 53 min
Bit rate mode : Variable
Bit rate : 24.0 Mb/s
Width : 1 920 pixels
Height : 1 080 pixels
Display aspect ratio : 16:9
Frame rate mode : Constant
Frame rate : 23.976 (24000/1001) FPS
Color space : YUV
Chroma subsampling : 4:2:0
Bit depth : 8 bits
Scan type : Progressive
Bits/(Pixel*Frame) : 0.482
Stream size : 19.0 GiB (87%)
Title : Total Recall [Ultimate Rekall Edition] (1990) Remux 1080p 2xUkr/Eng | Sub Eng [Hurtom]
Language : Ukrainian
Default : Yes
Forced : Yes

Audio #1
ID : 2
Format : AC-3
Format/Info : Audio Coding 3
Commercial name : Dolby Digital
Codec ID : A_AC3
Duration : 1 h 53 min
Bit rate mode : Constant
Bit rate : 192 kb/s
Channel(s) : 2 channels
Channel layout : L R
Sampling rate : 48.0 kHz
Frame rate : 31.250 FPS (1536 SPF)
Compression mode : Lossy
Delay relative to video : 1 s 300 ms
Stream size : 156 MiB (1%)
Title : MVO [NLO.TV] 2.0
Language : Ukrainian
Service kind : Complete Main
Default : Yes
Forced : Yes

Audio #2
ID : 3
Format : AC-3
Format/Info : Audio Coding 3
Commercial name : Dolby Digital
Codec ID : A_AC3
Duration : 1 h 53 min
Bit rate mode : Constant
Bit rate : 192 kb/s
Channel(s) : 2 channels
Channel layout : L R
Sampling rate : 48.0 kHz
Frame rate : 31.250 FPS (1536 SPF)
Compression mode : Lossy
Delay relative to video : 1 s 300 ms
Stream size : 156 MiB (1%)
Title : DVO [1+1] 2.0
Language : Ukrainian
Service kind : Complete Main
Default : No
Forced : No

Audio #3
ID : 4
Format : AC-3
Format/Info : Audio Coding 3
Commercial name : Dolby Digital
Codec ID : A_AC3
Duration : 1 h 53 min
Bit rate mode : Constant
Bit rate : 448 kb/s
Channel(s) : 6 channels
Channel layout : L R C LFE Ls Rs
Sampling rate : 48.0 kHz
Frame rate : 31.250 FPS (1536 SPF)
Compression mode : Lossy
Delay relative to video : 2 s 200 ms
Stream size : 364 MiB (2%)
Title : DVO [1+1] 5.1
Language : Ukrainian
Service kind : Complete Main
Default : No
Forced : No

Audio #4
ID : 5
Format : XLL
Format/Info : Digital Theater Systems
Commercial name : -HD Master Audio
Codec ID : A_DTS
Duration : 1 h 53 min
Bit rate mode : Variable
Bit rate : 2 083 kb/s
Channel(s) : 6 channels
Channel layout : C L R Ls Rs LFE
Sampling rate : 48.0 kHz
Frame rate : 93.750 FPS (512 SPF)
Bit depth : 16 bits
Compression mode : Lossless
Stream size : 1.65 GiB (8%)
Title : Original -HD MA 5.1
Language : English
Default : No
Forced : No

Audio #5
ID : 6
Format : AC-3
Format/Info : Audio Coding 3
Commercial name : Dolby Digital
Codec ID : A_AC3
Duration : 1 h 53 min
Bit rate mode : Constant
Bit rate : 448 kb/s
Channel(s) : 6 channels
Channel layout : L R C LFE Ls Rs
Sampling rate : 48.0 kHz
Frame rate : 31.250 FPS (1536 SPF)
Compression mode : Lossy
Delay relative to video : 1 s 300 ms
Stream size : 364 MiB (2%)
Title : Original 5.1
Language : English
Service kind : Complete Main
Default : No
Forced : No

Audio #6
ID : 7
Format : AC-3
Format/Info : Audio Coding 3
Commercial name : Dolby Digital
Codec ID : A_AC3
Duration : 1 h 53 min
Bit rate mode : Constant
Bit rate : 192 kb/s
Channel(s) : 2 channels
Channel layout : L R
Sampling rate : 48.0 kHz
Frame rate : 31.250 FPS (1536 SPF)
Compression mode : Lossy
Stream size : 156 MiB (1%)
Title : Original 2.0 | Commentary with Arnold Schwarzenegger & Director Paul Verhoeven
Language : English
Service kind : Complete Main
Default : No
Forced : No

Text #1
ID : 8
Format : UTF-8
Codec ID : S_TEXT/UTF8
Codec ID/Info : UTF-8 Plain Text
Duration : 1 h 45 min
Bit rate : 45 b/s
Count of elements : 1058
Stream size : 35.1 KiB (0%)
Title : Eng (Full) SRT
Language : English
Default : No
Forced : No

Text #2
ID : 9
Format : PGS
Muxing mode : zlib
Codec ID : S_HDMV/PGS
Codec ID/Info : Picture based subtitle format used on BDs/HD-DVDs
Duration : 1 h 49 min
Bit rate : 25.3 kb/s
Count of elements : 1739
Stream size : 19.7 MiB (0%)
Title : Eng (Full) PGS
Language : English
Default : No
Forced : No

Text #3
ID : 10
Format : PGS
Muxing mode : zlib
Codec ID : S_HDMV/PGS
Codec ID/Info : Picture based subtitle format used on BDs/HD-DVDs
Duration : 1 h 45 min
Bit rate : 32.6 kb/s
Count of elements : 2267
Stream size : 24.6 MiB (0%)
Title : Eng (SDH)
Language : English
Default : No
Forced : No

Text #4
ID : 11
Format : PGS
Muxing mode : zlib
Codec ID : S_HDMV/PGS
Codec ID/Info : Picture based subtitle format used on BDs/HD-DVDs
Duration : 1 h 53 min
Bit rate : 67.6 kb/s
Count of elements : 3632
Stream size : 54.7 MiB (0%)
Title : Eng (Full) | Commentary with Paul Verhoeven and Arnold Schwarzenegger
Language : English
Default : No
Forced : No

Text #5
ID : 12
Format : PGS
Muxing mode : zlib
Codec ID : S_HDMV/PGS
Codec ID/Info : Picture based subtitle format used on BDs/HD-DVDs
Duration : 1 h 52 min
Bit rate : 53.4 kb/s
Count of elements : 3115
Stream size : 42.9 MiB (0%)
Title : Eng (Full) | Commentary with cinematographer Jost Vacano (assisted by Marko Kregel)
Language : English
Default : No
Forced : No

Menu
00:00:00.000 : en:Opening Credits
00:06:07.491 : en:Awakening From a Nightmare
00:11:43.618 : en:News From Mars
00:18:31.568 : en:Recall
00:25:08.965 : en:Memories
00:29:55.960 : en:A Trained Weapon
00:37:24.659 : en:Escape From Wedded Bliss
00:43:30.232 : en:Subway Shootout
00:48:55.181 : en:On the Run
00:55:22.944 : en:Time Capsule
01:00:24.078 : en:Welcome to Mars
01:15:43.747 : en:The Boss
01:20:37.541 : en:Red-Light District
01:27:28.868 : en:The Last Resort
01:32:41.555 : en:Visitors
01:40:16.010 : en:Run to the Rebels
01:53:36.601 : en:Sealed Off

olexiykos 
Частий відвідувач


З нами з: 10.10.17
Востаннє: 20.01.21
Повідомлень: 30

2021-01-19 00:11  
розмір потрібен у два рази менший
MakRA 
VIP


З нами з: 10.11.18
Востаннє: 19.01.21
Повідомлень: 1167

2021-01-19 02:55  
olexiykos написано:
розмір потрібен у два рази менший

Це Remux, ріпи там "Інші релізи"

Ваш часовий пояс: GMT + 2 Години

Нова тема   Відповісти