Гаррі Поттер і таємна кімната / Harry Potter and the Chamber of Secrets (2002) UHD Remux 4K 2160p HDR H.265 2xUkr/Eng | Sub Ukr/Eng

Нові коментарі

Нова тема   Відповісти
Автор Повідомлення
birdcage 
Новенький


З нами з: 15.04.18
Востаннє: 18.04.19
Повідомлень: 15

2019-02-16 18:51  
Гаррі Поттер і таємна кімната / Harry Potter and the Chamber of Secrets (2002) UHD Remux 4K 2160p HDR H.265 2xUkr/Eng | Sub Ukr/Eng

Гаррі Поттер і таємна кімната / Harry Potter and the Chamber of Secrets (2002) UHD Remux 4K 2160p HDR H.265 2xUkr/Eng | Sub Ukr/Eng


Жанр: фентезі, пригодницький, дитячий, сімейний
Країна: Велика Британія, США, Німеччина



Кінокомпанія: 1492 Pictures, Heyday Films, MIRACLE Productions GmbH & Co. KG
Режисер: Кріс Коламбус / Chris Columbus
Актори: Деніел Редкліфф / Daniel Radcliffe, Руперт Ґрінт / Rupert Grint, Емма Вотсон / Emma Watson, Річард Гарріс / Richard Harris, Том Фелтон / Tom Felton, Алан Рікмен / Alan Rickman

Сюжет:
Гаррі продовжує навчання в школі магії та чаклунства «Хогвартс», аж раптом він дізнається про страшні і таємничі події з минулого, які можуть бути тісно пов'язані з долею самого його загиблих батьків. Гаррі, Рон та Герміона дізнались легенду про заснування Хогвартса та про люту ненависть, яку «чистокровні» чаклуни відчували до «напівкровок». За легендою, в Таємній кімнаті знаходилося чудовисько, яке повинно було вбивати напівкровок. Трійка нерозлучних друзів вирішила розкрити страшну загадку Таємної кімнати і дізнатися, хто ж став спадкоємцем Слизерина.


Тривалість: 02:40:58
Якість: 4K Remux 2160p
Відео:
кодек: HEVC/H.265
розмір кадру: 3840x2160
бітрейт: 60,3 Mб/с
бітова глибина: 10bit
контейнер: .m4v

Аудіо # 1:
мова: українська
переклад: багатоголосий закадровий
кодек: 2.0
бітрейт: 162 кб/с

Аудіо # 2:
мова: українська
переклад: багатоголосий закадровий
кодек: 2.0
бітрейт: 161 кб/с

Аудіо # 3:
мова: українська
переклад: багатоголосий закадровий
кодек: 5.1
бітрейт: 640 кб/с

Аудіо # 4:
мова: англійська
переклад: оригінал
кодек: 2.0
бітрейт: 165 кб/с

Аудіо # 5:
мова: англійська
переклад: оригінал
кодек: 5.1
бітрейт: 640 кб/с

Субтитри:
мова: українська
тип: програмні (м'які)
формат: *.srt

Субтитри:
мова: англійська
тип: програмні (м'які)
формат: *.srt
Info
Video #1
ID : 1
Format : HEVC
Format/Info : High Efficiency Video Coding
Codec ID : hvc1
Codec ID/Info : High Efficiency Video Coding
Duration : 2h 40mn
Bit rate : 60.3 Mbps
Width : 3 840 pixels
Height : 2 160 pixels
Display aspect ratio : 16:9
Frame rate mode : Variable
Frame rate : 23.976 fps
Minimum frame rate : 23.810 fps
Maximum frame rate : 24.390 fps
Bits/(Pixel*Frame) : 0.303
Stream size : 67.8 GiB (97%)
Language : English
Encoded date : UTC 2019-02-10 07:16:59
Tagged date : UTC 2019-02-10 07:33:57
Color primaries : BT.2020
Matrix coefficients : BT.2020 non-constant

Video #2
ID : 3
Format : JPEG
Codec ID : jpeg
Duration : 2h 40mn
Bit rate mode : Variable
Bit rate : 15.7 Kbps
Width : 3 840 pixels
Height : 2 160 pixels
Display aspect ratio : 16:9
Frame rate mode : Variable
Frame rate : 0.004 fps
Minimum frame rate : 0.002 fps
Maximum frame rate : 0.007 fps
Color space : YUV
Chroma subsampling : 4:2:0
Bit depth : 8 bits
Compression mode : Lossy
Bits/(Pixel*Frame) : 0.473
Stream size : 17.3 MiB (0%)
Encoded date : UTC 2019-02-10 07:16:59
Tagged date : UTC 2019-02-10 07:33:41

Audio #1
ID : 4
Format :
Format/Info : Advanced Audio Codec
Format profile : LC
Codec ID : 40
Duration : 2h 40mn
Bit rate mode : Variable
Bit rate : 162 Kbps
Maximum bit rate : 202 Kbps
Channel(s) : 2 channels
Channel positions : Front: L R
Sampling rate : 48.0 KHz
Compression mode : Lossy
Stream size : 186 MiB (0%)
Language : Ukrainian
Encoded date : UTC 2019-02-10 07:16:59
Tagged date : UTC 2019-02-10 07:33:57

Audio #2
ID : 5
Format :
Format/Info : Advanced Audio Codec
Format profile : LC
Codec ID : 40
Duration : 2h 37mn
Bit rate mode : Variable
Bit rate : 161 Kbps
Maximum bit rate : 282 Kbps
Channel(s) : 2 channels
Channel positions : Front: L R
Sampling rate : 48.0 KHz
Compression mode : Lossy
Stream size : 181 MiB (0%)
Language : Ukrainian
Encoded date : UTC 2019-02-10 07:16:59
Tagged date : UTC 2019-02-10 07:33:41

Audio #3
ID : 6
Format : AC-3
Format/Info : Audio Coding 3
Mode extension : CM (complete main)
Format settings, Endianness : Big
Codec ID : ac-3
Duration : 2h 37mn
Bit rate mode : Constant
Bit rate : 640 Kbps
Channel(s) : 6 channels
Channel positions : Front: L C R, Side: L R, LFE
Sampling rate : 48.0 KHz
Bit depth : 16 bits
Compression mode : Lossy
Stream size : 720 MiB (1%)
Language : Ukrainian
Encoded date : UTC 2019-02-10 07:16:59
Tagged date : UTC 2019-02-10 07:33:40

Audio #4
ID : 7
Format :
Format/Info : Advanced Audio Codec
Format profile : LC
Codec ID : 40
Duration : 2h 40mn
Bit rate mode : Variable
Bit rate : 165 Kbps
Maximum bit rate : 278 Kbps
Channel(s) : 2 channels
Channel positions : Front: L R
Sampling rate : 48.0 KHz
Compression mode : Lossy
Stream size : 189 MiB (0%)
Language : English
Encoded date : UTC 2019-02-10 07:16:59
Tagged date : UTC 2019-02-10 07:33:57

Audio #5
ID : 8
Format : AC-3
Format/Info : Audio Coding 3
Mode extension : CM (complete main)
Format settings, Endianness : Big
Codec ID : ac-3
Duration : 2h 40mn
Bit rate mode : Constant
Bit rate : 640 Kbps
Channel(s) : 6 channels
Channel positions : Front: L C R, Side: L R, LFE
Sampling rate : 48.0 KHz
Bit depth : 16 bits
Compression mode : Lossy
Stream size : 737 MiB (1%)
Language : English
Encoded date : UTC 2019-02-10 07:16:59
Tagged date : UTC 2019-02-10 07:33:57

Text #1
ID : 9
Format : Timed Text
Muxing mode : sbtl
Codec ID : tx3g
Duration : 2h 40mn
Bit rate mode : Variable
Bit rate : 80 bps
Stream size : 94.3 KiB (0%)
Language : Ukrainian
Encoded date : UTC 2019-02-10 07:16:59
Tagged date : UTC 2019-02-10 07:33:56

Text #2
ID : 10
Format : Timed Text
Muxing mode : sbtl
Codec ID : tx3g
Duration : 2h 40mn
Bit rate mode : Variable
Bit rate : 54 bps
Stream size : 63.2 KiB (0%)
Language : English
Encoded date : UTC 2019-02-10 07:16:59
Tagged date : UTC 2019-02-10 07:33:57
Скріншоти

















Джерело:
Особиста оцінка: 10 - без зайвих вагань рекомендую всім!



Реліз підготовлений для перегляду в iTunes , Apple TV 4k
Для перегляду данного релізу на PC рекомендується iTunes for Windows або VLC media player


Золотий реліз (завантажене не впливає на рейтинг)
 Трекер:    Зареєстрований   

Завантажити / скачати фільм українською



відео для новачків



 Зареєстрований:   2019-02-16 18:51
 Розмір:   69.79 GB 
 Оцінка фільму:   9.8/10 (Голосів: 6)
   
11FrYkT 
Модератор відео


З нами з: 20.02.11
Востаннє: 18.04.19
Повідомлень: 5790

2019-02-18 10:57  
birdcage написано:

Аудіо # 2:
мова: українська
переклад: багатоголосий закадровий
кодек: 5.1
бітрейт: 640 кб/с
кодек: 2.0
бітрейт: 161 кб/с

Аудіо # 3:
мова: англійська
переклад: оригінал
кодек: 5.1
бітрейт: 640 кб/с
кодек: 2.0
бітрейт: 165 кб/с


Розпишіть нормально

Ваш часовий пояс: GMT + 2 Години

Нова тема   Відповісти