Війна / The War (1994) 1080p Ukr/Eng | Sub Eng

Нові коментарі

Нова тема   Відповісти
Останній раз роздавалося drop_plz (2019-04-20)
Автор Повідомлення
Anonymous 







2019-02-16 17:36  
Війна / The War (1994) 1080p Ukr/Eng | Sub Eng

Війна / The War (1994) 1080p Ukr/Eng | Sub Eng


Жанр: драма
Країна: США



Кінокомпанія: Island World
Режисер: Джон Евнет / Jon Avnet
Актори: Елайджа Вуд / Elijah Wood, Кевін Костнер / Kevin Costner, Мер Вінінґем / Mare Winningham, Лексі Рендал / Lexi Randall, ЛаТойя Чішолм / LaToya Chisholm, Крістофер Феннел / Christopher Fennell та інші

Сюжет:
Розповідь ведеться від імені дівчинки, яка згадує своє дитинство, друзів, молодшого брата, батька і матір. Батько після повернення з В'єтнаму у кінці 60-х років тривалий час не живе вдома. Важкі часи, роботи немає, до того ж, у нього не все добре з головою...


Тривалість: 02:05:51
Якість: 1080p
Відео:
кодек:
розмір кадру: 1920x1080
бітрейт: 13.9 Mб/с

Аудіо # 1:
мова: українська
переклад: багатоголосий закадровий
кодек: 2.0
бітрейт: 192 кб/с

Аудіо # 2:
мова: англійська
переклад: оригінал
кодек: E-AC-3 5.1
бітрейт: 640 кб/с

Субтитри:
мова: англійська
тип: програмні (м'які)
формат: *.srt
Info
General
Unique ID : 239727328724011387392011455395134183756 (0xB459CDD8B1ECC40692337FC4EDBC194C)
Complete name : H:\Toloka\2019\The War (1994) 1080p.
Format :
Format version : Version 4
File size : 13.2 GiB
Duration : 2 h 5 min
Overall bit rate mode : Variable
Overall bit rate : 15.0 Mb/s
Encoded date : UTC 2019-02-16 14:27:55
Writing application : v6.1.0 ('Old Devil') built on Mar 4 2013 09:10:42
Writing library : libebml v1.3.0 + v1.4.0

Video
ID : 1
Format : AVC
Format/Info : Advanced Video Codec
Format profile : [email protected]
Format settings : CABAC / 4 Ref Frames
Format settings, CABAC : Yes
Format settings, RefFrames : 4 frames
Codec ID : V_MPEG4/ISO/AVC
Duration : 2 h 5 min
Bit rate mode : Variable
Bit rate : 13.9 Mb/s
Maximum bit rate : 15.0 Mb/s
Width : 1 920 pixels
Height : 1 080 pixels
Display aspect ratio : 16:9
Frame rate mode : Constant
Frame rate : 23.976 (24000/1001) FPS
Color space : YUV
Chroma subsampling : 4:2:0
Bit depth : 8 bits
Scan type : Progressive
Bits/(Pixel*Frame) : 0.279
Stream size : 12.2 GiB (92%)
Default : Yes
Forced : No
Color range : Limited
Color primaries : BT.709
Transfer characteristics : BT.709
Matrix coefficients : BT.709
Statistics Tags Issue : v19.0.0 ('Brave Captain') 64-bit 2019-02-06 17:45:47 / v6.1.0 ('Old Devil') built on Mar 4 2013 09:10:42 2019-02-16 14:27:55
FromStats_BitRate : 14178132
FromStats_Duration : 02:05:50.543000000
FromStats_FrameCount : 181032
FromStats_StreamSize : 13381575033

Audio #1
ID : 2
Format : AC-3
Format/Info : Audio Coding 3
Commercial name : Dolby Digital
Codec ID : A_AC3
Duration : 2 h 5 min
Bit rate mode : Constant
Bit rate : 192 kb/s
Channel(s) : 2 channels
Channel layout : L R
Sampling rate : 48.0 kHz
Frame rate : 31.250 FPS (1536 SPF)
Bit depth : 16 bits
Compression mode : Lossy
Stream size : 173 MiB (1%)
Title : UKR (NLO-TV)
Language : Ukrainian
Service kind : Complete Main
Default : Yes
Forced : Yes

Audio #2
ID : 3
Format : E-AC-3
Format/Info : Enhanced AC-3
Commercial name : Dolby Digital Plus
Codec ID : A_EAC3
Duration : 2 h 5 min
Bit rate mode : Constant
Bit rate : 640 kb/s
Channel(s) : 6 channels
Channel layout : L R C LFE Ls Rs
Sampling rate : 48.0 kHz
Frame rate : 31.250 FPS (1536 SPF)
Compression mode : Lossy
Stream size : 576 MiB (4%)
Language : English
Service kind : Complete Main
Default : No
Forced : No
Statistics Tags Issue : v19.0.0 ('Brave Captain') 64-bit 2019-02-06 17:45:47 / v6.1.0 ('Old Devil') built on Mar 4 2013 09:10:42 2019-02-16 14:27:55
FromStats_BitRate : 640000
FromStats_Duration : 02:05:50.496000000
FromStats_FrameCount : 235953
FromStats_StreamSize : 604039680

Text #1
ID : 4
Format : UTF-8
Codec ID : S_TEXT/UTF8
Codec ID/Info : UTF-8 Plain Text
Language : English
Default : No
Forced : No
Statistics Tags Issue : v19.0.0 ('Brave Captain') 64-bit 2019-02-06 17:45:47 / v6.1.0 ('Old Devil') built on Mar 4 2013 09:10:42 2019-02-16 14:27:55
FromStats_BitRate : 63
FromStats_Duration : 02:02:36.316000000
FromStats_FrameCount : 1590
FromStats_StreamSize : 58632

Text #2
ID : 5
Format : UTF-8
Codec ID : S_TEXT/UTF8
Codec ID/Info : UTF-8 Plain Text
Title : SDH
Language : English
Default : No
Forced : No
Statistics Tags Issue : v19.0.0 ('Brave Captain') 64-bit 2019-02-06 17:45:47 / v6.1.0 ('Old Devil') built on Mar 4 2013 09:10:42 2019-02-16 14:27:55
FromStats_BitRate : 71
FromStats_Duration : 02:03:26.299000000
FromStats_FrameCount : 1731
FromStats_StreamSize : 65734
Скріншоти





За українську доріжку подяка п.: POMEO, patriot2305
Особиста подяка пану denixx за надану матеріальну допомогу на підтримку цього і майбутніх релізів.
Джерело:


Срібний реліз (на рейтинг впливає 50% завантаженого)
 Трекер:    Зареєстрований   

Завантажити / скачати фільм українською



відео для новачків



 Зареєстрований:   2019-02-16 17:36
 Розмір:   13.2 GB 
 Оцінка фільму:   10/10 (Голосів: 3)
   
Інші релізи
   Війна / The War (1994) patriot2305  3 / 0   1.46 GB   2014-03-23 11:00 
Ваш часовий пояс: GMT + 2 Години

Нова тема   Відповісти