Приватна війна / A Private War (2018) 1080p H.265 Ukr/Eng | Sub Eng

Нові коментарі

Нова тема   Відповісти
Автор Повідомлення
Anonymous 







2019-02-16 17:24  
Приватна війна / A Private War (2018) 1080p H.265 Ukr/Eng | Sub Eng

Приватна війна / A Private War (2018) 1080p H.265 Ukr/Eng | Sub Eng


Жанр: біографічний, драма, воєнний
Країна: Велика Британія, США
Кінокомпанія: Acacia Filmed Entertainment, Savvy Media Holdings, Thunder Road Pictures
Режисер: Метью Гейнеман / Matthew Heineman
Актори: Розамунд Пайк / Rosamund Pike, Ґреґ Вайс / Greg Wise, Александра Моен / Alexandra Moen, Том Голландер / Tom Hollander, Фей Марсей / Faye Marsay, Джесухасан Ентоніхасан / Jesuthasan Antonythasan, Раман Срінівасан / Raman Srinivasan, Ніккі Амука-Бірд / Nikki Amuka-Bird та інші.

Сюжет:
Відмінна, хоч і важка військово-біографічна драма про одну з найвідоміших військових кореспондентів сучасності, яка присвятила своє життя висвітленню страшних подій кривавих військових конфліктів.
Події фільму охоплюють період з 2001-ого і по 2012 рік. У центрі сюжету відома на весь світ англійська журналістка Мері Колвін, яка після отримання серйозної травми стикається з великими психологічними проблемами. Але в підсумку, незважаючи на постійний стрес, Колвін раз по раз відправляється в гарячі точки, намагаючись розповісти всьому світу про страшні жахи кривавого режиму того чи іншого диктатора…

Тривалість: 01:50:35
Якість:
Відео:
кодек: H.265 (HEVC)
розмір кадру: 1920 x 816
бітрейт: 6 369 кб/с
бітова глибина: 10 біт
Увага! Перед завантаженням переконайтесь, що ваш пристрій відтворення (та/або ПЗ) підтримує H.265 (HEVC)

Аудіо # 1:
мова: українська
переклад: багатоголосий закадровий | DniproFilm
кодек: AC-3 5.1
бітрейт: 384 кб/с
Підтримати українське озвучення
Для студії DniproFilm дуже важлива популярність, чим популярнішою буде студія, тим більшу кількість українського озвучення до нових фільмів та серіалів в неї замовлятимуть. Тому прохання до не байдужих підписуватися на їх телеграм канал
Аудіо # 2:
мова: англійська
переклад: оригінал
кодек: 5.1
бітрейт: 1510 кб/с

Субтитри # 1:
мова: англійська (Full),
тип: програмні (м'які)
формат: *.srt

Субтитри # 2:
мова: англійська (SDH),
тип: програмні (м'які)
формат: *.srt


Info
Код:
General
Unique ID                                : 262758363009014632044141431525489978785 (0xC5AD6B81901B8809C5D44ADF330F2DA1)
Complete name                            : C:\Users\IGOR\Desktop\Harry\tol\A Private War (2018) 1080p H.265 [UKR_ENG] [Hurtom].
Format                                   :
Format version                           : Version 4 / Version 2
File size                                : 6.38 GiB
Duration                                 : 1 h 50 min
Overall bit rate                         : 8 265 kb/s
Movie name                               : A Private War (2018)
Encoded date                             : UTC 2019-02-16 14:19:12
Writing application                      : v20.0.0 ('I Am The Sun') 64-bit
Writing library                          : libebml v1.3.5 + v1.4.8
Cover                                    : Yes
Attachments                              : Cover.jpg

Video
ID                                       : 1
Format                                   : HEVC
Format/Info                              : High Efficiency Video Coding
Format profile                           : Main [email protected]@High
Codec ID                                 : V_MPEGH/ISO/HEVC
Duration                                 : 1 h 50 min
Bit rate                                 : 6 368 kb/s
Width                                    : 1 920 pixels
Height                                   : 816 pixels
Display aspect ratio                     : 2.35:1
Frame rate mode                          : Constant
Frame rate                               : 23.976 (24000/1001) FPS
Color space                              : YUV
Chroma subsampling                       : 4:2:0
Bit depth                                : 10 bits
Bits/(Pixel*Frame)                       : 0.170
Stream size                              : 4.92 GiB (77%)
Title                                    : A Private War (2018)
Writing library                          : x265 3.0+1-ed72af837053:[Windows][GCC 8.2.0][64 bit] 10bit
Encoding settings                        : cpuid=1111039 / frame-threads=4 / numa-pools=14,14 / wpp / pmode / no-pme / no-psnr / no-ssim / log-level=2 / input-csp=1 / input-res=1920x816 / interlace=0 / total-frames=159082 / level-idc=41 / high-tier=1 / uhd-bd=0 / ref=3 / no-allow-non-conformance / no-repeat-headers / annexb / no-aud / no-hrd / info / hash=0 / no-temporal-layers / open-gop / min-keyint=23 / keyint=240 / gop-lookahead=0 / bframes=4 / b-adapt=2 / b-pyramid / bframe-bias=0 / rc-lookahead=20 / lookahead-slices=5 / scenecut=40 / radl=0 / no-splice / no-intra-refresh / ctu=32 / min-cu-size=8 / no-rect / no-amp / max-tu-size=32 / tu-inter-depth=1 / tu-intra-depth=1 / limit-tu=0 / rdoq-level=0 / dynamic-rd=0.00 / no-ssim-rd / signhide / no-tskip / nr-intra=0 / nr-inter=0 / no-constrained-intra / no-strong-intra-smoothing / max-merge=2 / limit-refs=0 / no-limit-modes / me=2 / subme=5 / merange=32 / temporal-mvp / weightp / no-weightb / no-analyze-src-pics / deblock=-3:-3 / no-sao / no-sao-non-deblock / rd=3 / no-early-skip / rskip / no-fast-intra / no-tskip-fast / no-cu-lossless / no-b-intra / no-splitrd-skip / rdpenalty=0 / psy-rd=2.00 / psy-rdoq=0.00 / no-rd-refine / no-lossless / cbqpoffs=0 / crqpoffs=0 / rc=crf / crf=19.0 / qcomp=0.60 / qpstep=4 / stats-write=0 / stats-read=0 / vbv-maxrate=50000 / vbv-bufsize=50000 / vbv-init=0.9 / crf-max=0.0 / crf-min=0.0 / ipratio=1.40 / pbratio=1.30 / aq-mode=3 / aq-strength=0.95 / cutree / zone-count=0 / no-strict-cbr / qg-size=32 / no-rc-grain / qpmax=69 / qpmin=0 / no-const-vbv / sar=0 / overscan=0 / videoformat=5 / range=0 / colorprim=1 / transfer=1 / colormatrix=1 / chromaloc=0 / display-window=0 / max-cll=0,0 / min-luma=0 / max-luma=1023 / log2-max-poc-lsb=8 / vui-timing-info / vui-hrd-info / slices=1 / no-opt-qp-pps / no-opt-ref-list-length-pps / no-multi-pass-opt-rps / scenecut-bias=0.05 / no-opt-cu-delta-qp / no-aq-motion / no-hdr / no-hdr-opt / no-dhdr10-opt / no-idr-recovery-sei / analysis-reuse-level=5 / scale-factor=0 / refine-intra=0 / refine-inter=0 / refine-mv=0 / refine-ctu-distortion=0 / no-limit-sao / ctu-info=0 / no-lowpass-dct / refine-analysis-type=0 / copy-pic=1 / max-ausize-factor=1.0 / no-dynamic-refine / no-single-sei / no-hevc-aq / qp-adaptation-range=1.00
Language                                 : English
Default                                  : Yes
Forced                                   : No
Color range                              : Limited
Color primaries                          : BT.709
Transfer characteristics                 : BT.709
Matrix coefficients                      : BT.709

Audio #1
ID                                       : 2
Format                                   : AC-3
Format/Info                              : Audio Coding 3
Codec ID                                 : A_AC3
Duration                                 : 1 h 50 min
Bit rate mode                            : Constant
Bit rate                                 : 384 kb/s
Channel(s)                               : 6 channels
Channel positions                        : Front: L C R, Side: L R, LFE
Sampling rate                            : 48.0 kHz
Frame rate                               : 31.250 FPS (1536 SPF)
Bit depth                                : 16 bits
Compression mode                         : Lossy
Stream size                              : 304 MiB (5%)
Title                                    : БЗ - DniproFilm
Language                                 : Ukrainian
Service kind                             : Complete Main
Default                                  : Yes
Forced                                   : Yes

Audio #2
ID                                       : 3
Format                                   :
Format/Info                              : Digital Theater Systems
Codec ID                                 : A_DTS
Duration                                 : 1 h 50 min
Bit rate mode                            : Constant
Bit rate                                 : 1 509 kb/s
Channel(s)                               : 6 channels
Channel positions                        : Front: L C R, Side: L R, LFE
Sampling rate                            : 48.0 kHz
Frame rate                               : 93.750 FPS (512 SPF)
Bit depth                                : 24 bits
Compression mode                         : Lossy
Delay relative to video                  : 17 ms
Stream size                              : 1.17 GiB (18%)
Title                                    : Original
Language                                 : English
Default                                  : No
Forced                                   : No

Text #1
ID                                       : 4
Format                                   : UTF-8
Codec ID                                 : S_TEXT/UTF8
Codec ID/Info                            : UTF-8 Plain Text
Duration                                 : 1 h 41 min
Bit rate                                 : 44 b/s
Count of elements                        : 959
Stream size                              : 32.8 KiB (0%)
Title                                    : Full
Language                                 : English
Default                                  : No
Forced                                   : No

Text #2
ID                                       : 5
Format                                   : UTF-8
Codec ID                                 : S_TEXT/UTF8
Codec ID/Info                            : UTF-8 Plain Text
Duration                                 : 1 h 46 min
Bit rate                                 : 51 b/s
Count of elements                        : 1309
Stream size                              : 40.2 KiB (0%)
Title                                    : SDH
Language                                 : English
Default                                  : No
Forced                                   : No

Menu
00:00:00.000                             : en:00:00:00.000
00:05:16.149                             : en:00:05:16.149
00:11:12.589                             : en:00:11:12.589
00:17:24.669                             : en:00:17:24.669
00:22:27.179                             : en:00:22:27.179
00:30:37.961                             : en:00:30:37.961
00:36:41.241                             : en:00:36:41.241
00:39:07.011                             : en:00:39:07.011
00:47:09.785                             : en:00:47:09.785
00:51:01.183                             : en:00:51:01.183
00:56:59.166                             : en:00:56:59.166
01:02:05.180                             : en:01:02:05.180
01:06:14.095                             : en:01:06:14.095
01:11:58.356                             : en:01:11:58.356
01:16:49.104                             : en:01:16:49.104
01:21:28.759                             : en:01:21:28.759
01:25:16.653                             : en:01:25:16.653
01:30:06.776                             : en:01:30:06.776
01:37:45.902                             : en:01:37:45.902
01:42:54.335                             : en:01:42:54.335
Світлини





Джерело: &
Особиста оцінка: 0 - не дивився


Авторський реліз (завантажувати можна без реєстрації)
 Трекер:    Зареєстрований   

Завантажити / скачати фільм українською



відео для новачків



 Зареєстрований:   2019-02-16 17:24
 Розмір:   6.38 GB 
 Оцінка фільму:   8.3/10 (Голосів: 4)
   
Інші релізи
   Приватна війна / A Private War (2018) AVC Ukr/Eng | Sub Eng Sando7  7 / 0   2.05 GB   2019-02-15 22:08 
   Приватна війна / A Private War (2018) ssTAss  12 / 4   1.53 GB   2019-02-15 15:52 
Cerguk 
Свій


З нами з: 30.09.09
Востаннє: 22.09.19
Повідомлень: 75

2019-02-17 21:36  
Фільму явно бракнуло мистецтва стенариста та режисури. Дійсно чіпляє за живе фільм буквально останніх хвилин 15-20, а перед тим рвані і не надто зв"язані між собою сцени окремих репортажів + в навантаження розбавлені досить нудними діалогами
Ваш часовий пояс: GMT + 2 Години

Нова тема   Відповісти