Гаррі Поттер і філософський камінь / Harry Potter and the Sorcerer's Stone (2001) UHD Remux 4K 2160p HDR H.265 2xUkr/Eng | Sub Ukr/Eng

Нові коментарі

Нова тема   Відповісти
Останній раз роздавалося coltojkee (2019-04-23)
Автор Повідомлення
birdcage 
Новенький


З нами з: 15.04.18
Востаннє: 24.04.19
Повідомлень: 15

2019-02-16 14:44  
Гаррі Поттер і філософський камінь / Harry Potter and the Sorcerer's Stone (2001) UHD Remux 4K 2160p HDR H.265 2xUkr/Eng | Sub Ukr/Eng

Гаррі Поттер і філософський камінь / Harry Potter and the Sorcerer's Stone (2001) UHD Remux 4K 2160p HDR H.265 2xUkr/Eng | Sub Ukr/Eng


Жанр: фентезі, пригодницький, дитячий, сімейний
Країна: Велика Британія, США



Кінокомпанія: Warner Bros., Heyday Films, 1492 Pictures
Режисер: Кріс Коламбус
Актори: Деніел Редкліфф, Руперт Ґрінт, Емма Вотсон, Том Фелтон, Річард Гарріс, Меґґі Сміт, Роббі Колтрейн, Алан Рікмен, Джеймс Фелпс, Олівер Фелпс, Іен Герт

Сюжет:
В 11 років Гаррі Поттер дізнається, про те що він нащадок двох дуже могутніх магів і сам володіє магією, але поки що не вміє нею користуватися. Навчаться магії йому судилося в Школі Чарів і Чаклунства - Гоґвортсі, де на нього чекають неймовірні та небезпечні пригоди ...


Тривалість: 02:32:21
Якість: 4K Remux 2160p
Відео:
кодек: HEVC/H.265
розмір кадру: 3840x2160
бітрейт: 60,7 Мб/с
бітова глибина: 10bit
контейнер: .m4v

Аудіо # 1:
мова: українська
переклад: багатоголосий закадровий
кодек: 2.0
бітрейт: 164 кб/с

Аудіо # 2:
мова: українська
переклад: багатоголосий закадровий
кодек: 2.0
бітрейт: 136 кб/с

Аудіо # 3:
мова: англійська
переклад: оригінал
кодек: 2.0
бітрейт: 164кб/с

Аудіо # 4:
мова: англійська
переклад: оригінал
кодек: 5.1
бітрейт: 640 кб/с

Субтитри:
мова: українська
тип: програмні (м'які)
формат: *.srt

Субтитри:
мова: англійська
тип: програмні (м'які)
формат: *.srt
Info
Video #1
ID : 1
Format : HEVC
Format/Info : High Efficiency Video Coding
Codec ID : hvc1
Codec ID/Info : High Efficiency Video Coding
Duration : 2h 32mn
Bit rate : 60.7 Mbps
Width : 3 840 pixels
Height : 2 160 pixels
Display aspect ratio : 16:9
Frame rate mode : Variable
Frame rate : 23.976 fps
Minimum frame rate : 23.188 fps
Maximum frame rate : 24.390 fps
Bits/(Pixel*Frame) : 0.305
Stream size : 64.6 GiB (98%)
Language : English
Encoded date : UTC 2019-02-10 11:51:09
Tagged date : UTC 2019-02-10 12:02:08
Color primaries : BT.2020
Matrix coefficients : BT.2020 non-constant

Video #2
ID : 3
Format : JPEG
Codec ID : jpeg
Duration : 2h 32mn
Bit rate mode : Variable
Bit rate : 17.9 Kbps
Width : 3 840 pixels
Height : 2 160 pixels
Display aspect ratio : 16:9
Frame rate mode : Variable
Frame rate : 0.004 fps
Minimum frame rate : 0.002 fps
Maximum frame rate : 0.007 fps
Color space : YUV
Chroma subsampling : 4:2:0
Bit depth : 8 bits
Compression mode : Lossy
Bits/(Pixel*Frame) : 0.540
Stream size : 18.7 MiB (0%)
Encoded date : UTC 2019-02-10 11:51:09
Tagged date : UTC 2019-02-10 12:02:07

Audio #1
ID : 4
Format :
Format/Info : Advanced Audio Codec
Format profile : LC
Codec ID : 40
Duration : 2h 32mn
Bit rate mode : Variable
Bit rate : 164 Kbps
Maximum bit rate : 236 Kbps
Channel(s) : 2 channels
Channel positions : Front: L R
Sampling rate : 48.0 KHz
Compression mode : Lossy
Stream size : 179 MiB (0%)
Language : Ukrainian
Encoded date : UTC 2019-02-10 11:51:09
Tagged date : UTC 2019-02-10 12:02:08

Audio #2
ID : 5
Format :
Format/Info : Advanced Audio Codec
Format profile : LC
Codec ID : 40
Duration : 2h 32mn
Bit rate mode : Variable
Bit rate : 136 Kbps
Maximum bit rate : 236 Kbps
Channel(s) : 2 channels
Channel positions : Front: L R
Sampling rate : 48.0 KHz
Compression mode : Lossy
Stream size : 148 MiB (0%)
Language : Ukrainian
Encoded date : UTC 2019-02-10 11:51:09
Tagged date : UTC 2019-02-10 12:02:08

Audio #3
ID : 6
Format :
Format/Info : Advanced Audio Codec
Format profile : LC
Codec ID : 40
Duration : 2h 32mn
Bit rate mode : Variable
Bit rate : 164 Kbps
Maximum bit rate : 275 Kbps
Channel(s) : 2 channels
Channel positions : Front: L R
Sampling rate : 48.0 KHz
Compression mode : Lossy
Stream size : 178 MiB (0%)
Language : English
Encoded date : UTC 2019-02-10 11:51:09
Tagged date : UTC 2019-02-10 12:02:08

Audio #4
ID : 7
Format : AC-3
Format/Info : Audio Coding 3
Mode extension : CM (complete main)
Format settings, Endianness : Big
Codec ID : ac-3
Duration : 2h 32mn
Bit rate mode : Constant
Bit rate : 640 Kbps
Channel(s) : 6 channels
Channel positions : Front: L C R, Side: L R, LFE
Sampling rate : 48.0 KHz
Bit depth : 16 bits
Compression mode : Lossy
Stream size : 697 MiB (1%)
Language : English
Encoded date : UTC 2019-02-10 11:51:09
Tagged date : UTC 2019-02-10 12:02:08

Text #1
ID : 8
Format : Timed Text
Muxing mode : sbtl
Codec ID : tx3g
Duration : 14s 786ms
Source duration : 2h 23mn
Bit rate mode : Variable
Bit rate : 1 bps
Stream size : 2.00 Bytes (0%)
Source stream size : 74.0 KiB (0%)
Language : Ukrainian
Encoded date : UTC 2019-02-10 11:51:09
Tagged date : UTC 2019-02-10 12:02:06
mdhd_Duration : 14786

Text #2
ID : 9
Format : Timed Text
Muxing mode : sbtl
Codec ID : tx3g
Duration : 9mn 9s
Source duration : 2h 32mn
Bit rate mode : Variable
Bit rate : 41 bps
Stream size : 2.74 KiB (0%)
Source stream size : 52.3 KiB (0%)
Language : English
Encoded date : UTC 2019-02-10 11:51:09
Tagged date : UTC 2019-02-10 12:02:08
mdhd_Duration : 549613
Скріншоти

















Джерело:
Особиста оцінка: 10 - без зайвих вагань рекомендую всім!



Реліз підготовлений для перегляду в iTunes , Apple TV 4k
Для перегляду данного релізу на PC рекомендується iTunes for Windows або VLC media player


Золотий реліз (завантажене не впливає на рейтинг)
 Трекер:    Зареєстрований   

Завантажити / скачати фільм українською



відео для новачків



 Зареєстрований:   2019-02-16 14:44
 Розмір:   65.78 GB 
 Оцінка фільму:   8.3/10 (Голосів: 6)
   
11FrYkT 
Модератор відео


З нами з: 20.02.11
Востаннє: 24.04.19
Повідомлень: 5810

2019-02-16 15:12  
birdcage написано:

Video #2
ID : 3
Format : JPEG
Codec ID : jpeg
Duration : 2h 32mn
Bit rate mode : Variable
Bit rate : 17.9 Kbps
Width : 3 840 pixels
Height : 2 160 pixels
Display aspect ratio : 16:9
Frame rate mode : Variable
Frame rate : 0.004 fps
Minimum frame rate : 0.002 fps
Maximum frame rate : 0.007 fps
Color space : YUV
Chroma subsampling : 4:2:0
Bit depth : 8 bits
Compression mode : Lossy
Bits/(Pixel*Frame) : 0.540
Stream size : 18.7 MiB (0%)
Encoded date : UTC 2019-02-10 11:51:09
Tagged date : UTC 2019-02-10 12:02:07

це що так зображення показує?

birdcage написано:

Audio #3
ID : 6
Format :
Format/Info : Advanced Audio Codec
Format profile : LC
Codec ID : 40
Duration : 2h 32mn
Bit rate mode : Variable
Bit rate : 164 Kbps
Maximum bit rate : 275 Kbps
Channel(s) : 2 channels
Channel positions : Front: L R
Sampling rate : 48.0 KHz
Compression mode : Lossy
Stream size : 178 MiB (0%)
Language : English
Encoded date : UTC 2019-02-10 11:51:09
Tagged date : UTC 2019-02-10 12:02:08


неописана доріжка

Такод невірно зазначені бітрейти укр доріжок

birdcage 
Новенький


З нами з: 15.04.18
Востаннє: 24.04.19
Повідомлень: 15

2019-02-16 15:36  
11FrYkT
- зоображення - це скріншоти чаптерсів
- доріжка 2.0 - автоматичний дублікат сураунд доріжки , при конвертації з . у .m4v з itunes compatible. При перегляді в itunes / iphone / ipad / apple tv , у списку аудіо не відображаються дублікати, якість аудіо доріжки обирається автоматично в залежності від того який пристрій відтворення аудіо.
- в інфо вказано що бітрейт доріжок змінний, Bit rate mode: Variable / Bit rate: 164 Kbps / Maximum bit rate: 275 Kbps , який вказувати правильно ? у вихідному . файлі бітрейт аудіо показував 192 Kbps

11FrYkT 
Модератор відео


З нами з: 20.02.11
Востаннє: 24.04.19
Повідомлень: 5810

2019-02-16 18:11  
164 і 136
Sergeyfit 
Новенький


З нами з: 05.02.12
Востаннє: 11.04.19
Повідомлень: 4

2019-02-18 23:52  
Mi tv 4s (4k)

Дивлюсь але якість зерниста, якось так собі, наче FHD кодоване

Ваш часовий пояс: GMT + 2 Години

Нова тема   Відповісти