Величне століття. Нова володарка (Імперія Кесем) (Сезони 1-2) / Muhtesem Yüzyil: Kösem (Seasons 1-2) (2015-2017) 1080p

Нові коментарі

Нова тема   Відповісти
Автор Повідомлення
Anonymous 







2019-02-16 13:52  
Величне століття. Нова володарка (Імперія Кесем) (Сезони 1-2) / Muhtesem Yüzyil: Kösem (Seasons 1-2) (2015-2017) 1080p

Величне століття. Нова володарка (Імперія Кесем) (Сезони 1-2) / Muhtesem Yüzyil: Kösem (Seasons 1-2) (2015-2017) 1080p


Жанр: драма, історичний, мелодрама
Країна: Туреччина



Кінокомпанія: Tim's Productions, Tims & B Productions
Режисер: Зейнеп Гюнай (Zeynep Gunay), Мерт Байкал (Mert Baykal), Ягиз Алп Акайдин (Yagiz Alp Akaydin)
Актори: Берен Саат (Beren Saat), Хюлья Авшар (Hülya Avsar), Еркан Колчак Кьостенділь (Erkan Kolçak Köstendil), Мете Хорозоглу (Mete Horozoglu), Аслихан Гюрбуз (Aslihan Gürbüz), Анастасія Цилімпіу (Anastasia Tsilimpiou), Тюлін Озен (Tülin Özen), Екін Коч (Ekin Koç) та інші

Сюжет:
Продовження красивої та захоплюючої історичної драми «Величне століття. Роксолана». На зміну шаленої історії кохання Роксолани і султана Сулеймана приходить нова епоха та нові пристрасті. Цього разу в центрі сюжету - життя фаворитки султана Ахмеда І, красуні на ім’я Кесем Султан або ж Анастасії.

Головна героїня - юна Анастасія, яка виросла в заможній грецькій родині. Життя дівчини протікає спокійно, розмірено, вона радіє життю разом з батьком і матір'ю. Все б нічого, тільки в Анастасію закохався молодий правитель Османської Імперії султан Ахмед I. Її портрет стоїть в його покоях. День за днем він задивляється на картину з образом красивої дівчини. Його бабуся, Сафіє-султан, велить привезти Анастасію до палацу. Дівчину силою забирають з батьківського дому. З цього і починається складний, повний поневірянь та перемог шлях майбутньої Кесем…


Тривалість: 1 серія: ~50 хв. (цілком серій: 168)
Перелік серій
Сезон 1: Серії 1-84
Сезон 2: Серії 85-168
Якість: [1plus1.video]
Відео:
кодек:
розмір кадру: 1920 х 1080
бітрейт: ~4300 кб/с

Аудіо:
мова: українська
переклад: професійний дубльований
кодек: 2.0
бітрейт: 256 кб/с

Джерело озвучення:
Info
General
Unique ID : 283676122059313835928289837131958899754 (0xD56A08A6FF2AAA513F3A8847BC80D42A)
Complete name : F:\Support\series\Величне століття. Нова володарка [, 1080p, Ukr]\Сезон 1\Серія 001.
Format :
Format version : Version 4
File size : 2.06 GiB
Duration : 1 h 4 min
Overall bit rate : 4 606 kb/s
Encoded date : UTC 2019-02-11 18:53:00
Writing application : v31.0.0 ('Dolores In A Shoestand') 64-bit
Writing library : libebml v1.3.6 + v1.4.9

Video
ID : 1
Format : AVC
Format/Info : Advanced Video Codec
Format profile : [email protected]
Format settings : CABAC / 6 Ref Frames
Format settings, CABAC : Yes
Format settings, ReFrames : 6 frames
Codec ID : V_MPEG4/ISO/AVC
Duration : 1 h 4 min
Bit rate : 4 348 kb/s
Width : 1 920 pixels
Height : 1 080 pixels
Display aspect ratio : 16:9
Frame rate mode : Constant
Frame rate : 25.000 FPS
Color space : YUV
Chroma subsampling : 4:2:0
Bit depth : 8 bits
Scan type : Progressive
Bits/(Pixel*Frame) : 0.084
Stream size : 1.95 GiB (94%)
Writing library : core 142 r2491 24e4fed
Encoding settings : cabac=1 / ref=6 / deblock=1:0:0 / analyse=0x3:0x113 / me=hex / subme=7 / psy=1 / psy_rd=1.00:0.00 / mixed_ref=1 / me_range=16 / chroma_me=1 / trellis=1 / 8x8dct=1 / cqm=0 / deadzone=21,11 / fast_pskip=1 / chroma_qp_offset=-2 / threads=12 / lookahead_threads=2 / sliced_threads=0 / nr=0 / decimate=1 / interlaced=0 / bluray_compat=0 / constrained_intra=0 / bframes=3 / b_pyramid=2 / b_adapt=1 / b_bias=0 / direct=1 / weightb=1 / open_gop=0 / weightp=2 / keyint=100 / keyint_min=10 / scenecut=40 / intra_refresh=0 / rc_lookahead=40 / rc=crf / mbtree=1 / crf=22.0 / qcomp=0.60 / qpmin=0 / qpmax=69 / qpstep=4 / vbv_maxrate=10000 / vbv_bufsize=20000 / crf_max=0.0 / nal_hrd=none / filler=0 / ip_ratio=1.41 / aq=1:1.00
Default : Yes
Forced : No

Audio
ID : 2
Format : LC
Format/Info : Advanced Audio Codec Low Complexity
Codec ID : A_AAC-2
Duration : 1 h 4 min
Bit rate : 256 kb/s
Channel(s) : 2 channels
Channel layout : L R
Sampling rate : 44.1 kHz
Frame rate : 43.066 FPS (1024 SPF)
Compression mode : Lossy
Delay relative to video : -80 ms
Stream size : 117 MiB (6%)
Title : 1+1
Language : Ukrainian
Default : Yes
Forced : No
Скріншоти
Джерело: &
Особиста оцінка: 0 - не дивився


Золотий реліз (завантажене не впливає на рейтинг)
 Трекер:    Зареєстрований   

Завантажити / скачати серіал українською



відео для новачків



 Зареєстрований:   2019-02-16 13:52
 Розмір:   258.74 GB 
 Оцінка серіалу:   6.5/10 (Голосів: 4)
   
zorrovmaske 
Новенький


З нами з: 03.01.14
Востаннє: 03.07.19
Повідомлень: 1

2019-02-18 20:18  
Дайте швидкості,а то жінка дуже хоче подивитись)))
sasha801 
Новенький


З нами з: 08.02.12
Востаннє: 19.08.19
Повідомлень: 12

2019-02-27 20:16  
zorrovmaske написано:
Дайте швидкості,а то жінка дуже хоче подивитись)))

Так. Не завадило б

Ваш часовий пояс: GMT + 2 Години

Нова тема   Відповісти