Той, що біжить лабіринтом. Трилогія / The Maze Runner. Trilogy (2014-2018) 1080p H.265 Ukr/Eng | Sub Ukr/Eng

Нові коментарі

Нова тема   Відповісти
Автор Повідомлення
-Star-Lord- 
VIP


З нами з: 09.08.18
Востаннє: 19.04.19
Повідомлень: 736

2019-02-16 13:31  
Той, що біжить лабіринтом. Трилогія / The Maze Runner. Trilogy (2014-2018) 1080p H.265 Ukr/Eng | Sub Ukr/Eng

Той, що біжить лабіринтом. Трилогія / The Maze Runner. Trilogy (2014-2018) 1080p H.265 Ukr/Eng | Sub Ukr/Eng

1. Той, що біжить лабіринтом / The Maze Runner (2014) 1080p H.265 Ukr/Eng | Sub Ukr/Eng
Той, що біжить лабіринтом / The Maze Runner (2014) 1080p H.265 Ukr/Eng | Sub Ukr/Eng

Той, що біжить лабіринтом. Трилогія / The Maze Runner. Trilogy (2014-2018) 1080p H.265 Ukr/Eng | Sub Ukr/Eng


Жанр: екшн, містика, фантастика
Країна: США, Канада, Велика Британія
Кінокомпанія: 20th Century Fox, Dayday Films, Gotham Group
Режисер: Вес Болл
Актори: Ділан О'Браєн, Томас Сенґстер, Кая Скоделаріо, Вілл Поултер, Кі Гонґ Лі, Блейк Купер, Алекс Дж. Флорес, Джейкоб Латімор, Патріція Кларксон

Сюжет:
Головний герой - підліток Томас, який нічого не пам'ятає, крім свого імені. Він опиняється серед 60 підлітків, які виживають в замкнутому просторі. Група хлопців проживає в «Притулку» вже два роки і вони намагаються знайти вихід з лабіринту. Коли герої вже починають втрачати надію, з'являється дівчинка в стані коми, але з дивною запискою.

Тривалість: 01:53:26
Якість:
Відео:
кодек: H.265 (HEVC)
розмір кадру: 1920 x 800
бітрейт: 5 791 кб/с
бітова глибина: 10 біт
Увага! Перед завантаженням переконайтесь, що ваш пристрій відтворення (та/або ПЗ) підтримує H.265 (HEVC)

Аудіо # 1:
мова: українська
переклад: професійний дубльований
кодек: AC-3 2.0
бітрейт: 192 кб/с

Аудіо # 2:
мова: англійська
переклад: оригінал
кодек: AC-3 5.1
бітрейт: 448 кб/с

Субтитри # 1:
мова: українська (Full),
тип: програмні (м'які)
формат: *.srt

Субтитри # 2:
мова: англійська (Full),
тип: програмні (м'які)
формат: *.srt


Info
Код:
General
Unique ID                                : 40884444080448994564831849920645179060 (0x1EC20EB91173CE3C450D1F60E40E26B4)
Complete name                            : F:\Video\The Maze Runner. Trilogy (2015-2018) 1080p H.265 [UKR_ENG] [Hurtom]\1. The Maze Runner (2015) 1080p H.265 [UKR_ENG] [Hurtom].
Format                                   :
Format version                           : Version 4 / Version 2
File size                                : 5.10 GiB
Duration                                 : 1 h 53 min
Overall bit rate                         : 6 433 kb/s
Movie name                               : The Maze Runner (2015)
Encoded date                             : UTC 2019-02-13 11:42:48
Writing application                      : v20.0.0 ('I Am The Sun') 64-bit
Writing library                          : libebml v1.3.5 + v1.4.8
Cover                                    : Yes
Attachments                              : Cover1.jpg

Video
ID                                       : 1
Format                                   : HEVC
Format/Info                              : High Efficiency Video Coding
Format profile                           : Main [email protected]@High
Codec ID                                 : V_MPEGH/ISO/HEVC
Duration                                 : 1 h 53 min
Bit rate                                 : 5 791 kb/s
Width                                    : 1 920 pixels
Height                                   : 800 pixels
Display aspect ratio                     : 2.40:1
Frame rate mode                          : Constant
Frame rate                               : 23.976 (24000/1001) FPS
Color space                              : YUV
Chroma subsampling                       : 4:2:0
Bit depth                                : 10 bits
Bits/(Pixel*Frame)                       : 0.157
Stream size                              : 4.59 GiB (90%)
Title                                    : The Maze Runner (2015)
Writing library                          : x265 2.8+74-fd517ae68f93:[Windows][GCC 7.3.0][64 bit] 10bit
Encoding settings                        : cpuid=1049583 / frame-threads=5 / numa-pools=4 / wpp / no-pmode / no-pme / no-psnr / no-ssim / log-level=3 / input-csp=1 / input-res=1920x800 / interlace=0 / total-frames=0 / level-idc=41 / high-tier=1 / uhd-bd=0 / ref=5 / allow-non-conformance / no-repeat-headers / annexb / no-aud / no-hrd / info / hash=0 / no-temporal-layers / open-gop / min-keyint=24 / keyint=240 / gop-lookahead=0 / bframes=9 / b-adapt=2 / b-pyramid / bframe-bias=0 / rc-lookahead=40 / lookahead-slices=5 / scenecut=40 / radl=0 / no-intra-refresh / ctu=64 / min-cu-size=8 / no-rect / no-amp / max-tu-size=32 / tu-inter-depth=1 / tu-intra-depth=1 / limit-tu=0 / rdoq-level=0 / dynamic-rd=0.00 / no-ssim-rd / signhide / no-tskip / nr-intra=0 / nr-inter=0 / no-constrained-intra / strong-intra-smoothing / max-merge=2 / limit-refs=3 / no-limit-modes / me=3 / subme=7 / merange=57 / temporal-mvp / weightp / no-weightb / no-analyze-src-pics / deblock=-3:-3 / no-sao / no-sao-non-deblock / rd=3 / no-early-skip / rskip / no-fast-intra / no-tskip-fast / no-cu-lossless / no-b-intra / no-splitrd-skip / rdpenalty=0 / psy-rd=1.00 / psy-rdoq=0.00 / no-rd-refine / no-lossless / cbqpoffs=0 / crqpoffs=0 / rc=crf / crf=16.0 / qcomp=0.75 / qpstep=4 / stats-write=0 / stats-read=0 / vbv-maxrate=50000 / vbv-bufsize=50000 / vbv-init=0.9 / crf-max=0.0 / crf-min=0.0 / ipratio=1.40 / pbratio=1.30 / aq-mode=1 / aq-strength=1.00 / cutree / zone-count=0 / no-strict-cbr / qg-size=32 / no-rc-grain / qpmax=69 / qpmin=0 / no-const-vbv / sar=1 / overscan=0 / videoformat=5 / range=0 / colorprim=1 / transfer=1 / colormatrix=1 / chromaloc=0 / display-window=0 / max-cll=0,0 / min-luma=0 / max-luma=1023 / log2-max-poc-lsb=8 / vui-timing-info / vui-hrd-info / slices=1 / no-opt-qp-pps / no-opt-ref-list-length-pps / no-multi-pass-opt-rps / scenecut-bias=0.05 / no-opt-cu-delta-qp / no-aq-motion / no-hdr / no-hdr-opt / no-dhdr10-opt / no-idr-recovery-sei / analysis-reuse-level=5 / scale-factor=0 / refine-intra=0 / refine-inter=0 / refine-mv=0 / no-limit-sao / ctu-info=0 / no-lowpass-dct / refine-mv-type=0 / copy-pic=1 / max-ausize-factor=1.0 / no-dynamic-refine / no-single-sei
Language                                 : English
Default                                  : Yes
Forced                                   : No
Color range                              : Limited
Color primaries                          : BT.709
Transfer characteristics                 : BT.709
Matrix coefficients                      : BT.709

Audio #1
ID                                       : 2
Format                                   : AC-3
Format/Info                              : Audio Coding 3
Codec ID                                 : A_AC3
Duration                                 : 1 h 53 min
Bit rate mode                            : Constant
Bit rate                                 : 192 kb/s
Channel(s)                               : 2 channels
Channel positions                        : Front: L R
Sampling rate                            : 48.0 kHz
Frame rate                               : 31.250 FPS (1536 SPF)
Bit depth                                : 16 bits
Compression mode                         : Lossy
Stream size                              : 156 MiB (3%)
Title                                    : ПД - iTunes
Language                                 : Ukrainian
Service kind                             : Complete Main
Default                                  : Yes
Forced                                   : Yes

Audio #2
ID                                       : 3
Format                                   : AC-3
Format/Info                              : Audio Coding 3
Codec ID                                 : A_AC3
Duration                                 : 1 h 53 min
Bit rate mode                            : Constant
Bit rate                                 : 448 kb/s
Channel(s)                               : 6 channels
Channel positions                        : Front: L C R, Side: L R, LFE
Sampling rate                            : 48.0 kHz
Frame rate                               : 31.250 FPS (1536 SPF)
Bit depth                                : 16 bits
Compression mode                         : Lossy
Stream size                              : 364 MiB (7%)
Title                                    : Original
Language                                 : English
Service kind                             : Complete Main
Default                                  : No
Forced                                   : No

Text #1
ID                                       : 4
Format                                   : UTF-8
Codec ID                                 : S_TEXT/UTF8
Codec ID/Info                            : UTF-8 Plain Text
Duration                                 : 1 h 45 min
Bit rate                                 : 65 b/s
Count of elements                        : 1211
Stream size                              : 50.5 KiB (0%)
Title                                    : Full
Language                                 : Ukrainian
Default                                  : Yes
Forced                                   : No

Text #2
ID                                       : 5
Format                                   : UTF-8
Codec ID                                 : S_TEXT/UTF8
Codec ID/Info                            : UTF-8 Plain Text
Duration                                 : 1 h 44 min
Bit rate                                 : 39 b/s
Count of elements                        : 1187
Stream size                              : 30.6 KiB (0%)
Title                                    : Full
Language                                 : English
Default                                  : No
Forced                                   : No

Menu
00:00:00.000                             : en:00:00:00.000
00:03:12.651                             : en:00:03:12.651
00:07:15.977                             : en:00:07:15.977
00:10:25.250                             : en:00:10:25.250
00:14:15.563                             : en:00:14:15.563
00:17:21.249                             : en:00:17:21.249
00:19:33.339                             : en:00:19:33.339
00:23:21.025                             : en:00:23:21.025
00:24:36.392                             : en:00:24:36.392
00:28:13.108                             : en:00:28:13.108
00:31:26.009                             : en:00:31:26.009
00:34:12.050                             : en:00:34:12.050
00:37:11.813                             : en:00:37:11.813
00:41:00.875                             : en:00:41:00.875
00:42:16.617                             : en:00:42:16.617
00:45:47.453                             : en:00:45:47.453
00:48:31.826                             : en:00:48:31.826
00:52:57.800                             : en:00:52:57.800
00:55:21.777                             : en:00:55:21.777
00:57:58.809                             : en:00:57:58.809
00:59:31.151                             : en:00:59:31.151
01:01:35.275                             : en:01:01:35.275
01:05:13.910                             : en:01:05:13.910
01:08:42.410                             : en:01:08:42.410
01:12:14.247                             : en:01:12:14.247
01:14:22.833                             : en:01:14:22.833
01:20:27.823                             : en:01:20:27.823
01:22:25.649                             : en:01:22:25.649
01:25:38.175                             : en:01:25:38.175
01:29:41.585                             : en:01:29:41.585
01:33:49.457                             : en:01:33:49.457
01:36:43.256                             : en:01:36:43.256
01:39:33.426                             : en:01:39:33.426
01:43:05.596                             : en:01:43:05.596
01:45:08.219                             : en:01:45:08.219
01:46:12.658                             : en:01:46:12.658
Світлини



2. Той, що біжить лабіринтом. Випробування вогнем / Maze Runner: The Scorch Trials (2015) 1080p H.265 Ukr/Eng | Sub Ukr/Eng
Той, що біжить лабіринтом. Випробування вогнем / Maze Runner: The Scorch Trials (2015) 1080p H.265 Ukr/Eng | Sub Ukr/Eng

Той, що біжить лабіринтом. Трилогія / The Maze Runner. Trilogy (2014-2018) 1080p H.265 Ukr/Eng | Sub Ukr/Eng


Жанр: екшн, фантастика, трилер
Країна: США
Кінокомпанія: Gotham Group, TSG Entertainment, Temple Hill Entertainment
Режисер: Вес Болл / Wes Ball
Актори: Ділан О`Брайен / Dylan O'Brien, Наталі Еммануель / Nathalie Emmanuel, Томас Сенґстер / Thomas Sangster, Кая Скоделаріо / Kaya Scodelario, Ейдан Ґіллен / Aidan Gillen, Кетерін МакНамара / Katherine McNamara, Джанкарло Еспозіто / Giancarlo Esposito, Патріція Кларксон / Patricia Clarkson, Беррі Пеппер / Barry Pepper, Кі Хонґ Лі / Ki Hong Lee та інші.

Сюжет:
У другому фільмі епічної саги "Лабіринт", Томасу та іншим ґлейдерам доведеться зіткнутися з найбільшою проблемою - таємничою і потужною організацією, яка продовжує випробовувати молодих людей. Прорвавшись на волю, вони з жахом виявлять, що світ за межами Лабіринту був зруйнований апокаліпсисом. Подорож ґлейдерів приведе їх до Спаленої Землі - пустельного ландшафту, наповненому неймовірними перешкодами. Вони зустрінуться з іншими людьми, і об'єднаються, щоб протистояти владі і розкрити шокуючий план організації "ПОРОК"...

Тривалість: 02:11:42
Якість:
Відео:
кодек: H.265 (HEVC)
розмір кадру: 1920 x 800
бітрейт: 4 833 кб/с
бітова глибина: 10 біт
Увага! Перед завантаженням переконайтесь, що ваш пристрій відтворення (та/або ПЗ) підтримує H.265 (HEVC)

Аудіо # 1:
мова: українська
переклад: професійний дубльований
кодек: AC-3 5.1
бітрейт: 448 кб/с

Аудіо # 2:
мова: англійська
переклад: оригінал
кодек: AC-3 5.1
бітрейт: 640 кб/с

Субтитри # 1:
мова: українська (Full),
тип: програмні (м'які)
формат: *.srt

Субтитри # 2:
мова: англійська (Full),
тип: програмні (м'які)
формат: *.srt


Info
Код:
General
Unique ID                                : 308212473569485141092456945643737048164 (0xE7DF902E682A92376D8B631A0BABE464)
Complete name                            : F:\Video\The Maze Runner. Trilogy (2015-2018) 1080p H.265 [UKR_ENG] [Hurtom]\2. The Maze Runner. The Scorch Trials (2015) 1080p H.265 [UKR_ENG] [Hurtom].
Format                                   :
Format version                           : Version 4 / Version 2
File size                                : 5.45 GiB
Duration                                 : 2 h 11 min
Overall bit rate                         : 5 924 kb/s
Movie name                               : The Maze Runner. The Scorch Trials (2015)
Encoded date                             : UTC 2019-02-13 11:50:41
Writing application                      : v20.0.0 ('I Am The Sun') 64-bit
Writing library                          : libebml v1.3.5 + v1.4.8
Cover                                    : Yes
Attachments                              : Cover.jpg

Video
ID                                       : 1
Format                                   : HEVC
Format/Info                              : High Efficiency Video Coding
Format profile                           : Main [email protected]@High
Codec ID                                 : V_MPEGH/ISO/HEVC
Duration                                 : 2 h 11 min
Bit rate                                 : 4 833 kb/s
Width                                    : 1 920 pixels
Height                                   : 800 pixels
Display aspect ratio                     : 2.40:1
Frame rate mode                          : Constant
Frame rate                               : 23.976 (24000/1001) FPS
Color space                              : YUV
Chroma subsampling                       : 4:2:0
Bit depth                                : 10 bits
Bits/(Pixel*Frame)                       : 0.131
Stream size                              : 4.45 GiB (82%)
Title                                    : The Maze Runner. The Scorch Trials (2015)
Writing library                          : x265 2.8+74-fd517ae68f93:[Windows][GCC 7.3.0][64 bit] 10bit
Encoding settings                        : cpuid=1049583 / frame-threads=5 / numa-pools=4 / wpp / no-pmode / no-pme / no-psnr / no-ssim / log-level=3 / input-csp=1 / input-res=1920x800 / interlace=0 / total-frames=0 / level-idc=41 / high-tier=1 / uhd-bd=0 / ref=5 / allow-non-conformance / no-repeat-headers / annexb / no-aud / no-hrd / info / hash=0 / no-temporal-layers / open-gop / min-keyint=24 / keyint=240 / gop-lookahead=0 / bframes=9 / b-adapt=2 / b-pyramid / bframe-bias=0 / rc-lookahead=40 / lookahead-slices=5 / scenecut=40 / radl=0 / no-intra-refresh / ctu=64 / min-cu-size=8 / no-rect / no-amp / max-tu-size=32 / tu-inter-depth=1 / tu-intra-depth=1 / limit-tu=0 / rdoq-level=0 / dynamic-rd=0.00 / no-ssim-rd / signhide / no-tskip / nr-intra=0 / nr-inter=0 / no-constrained-intra / strong-intra-smoothing / max-merge=2 / limit-refs=3 / no-limit-modes / me=3 / subme=7 / merange=57 / temporal-mvp / weightp / no-weightb / no-analyze-src-pics / deblock=-3:-3 / no-sao / no-sao-non-deblock / rd=3 / no-early-skip / rskip / no-fast-intra / no-tskip-fast / no-cu-lossless / no-b-intra / no-splitrd-skip / rdpenalty=0 / psy-rd=1.00 / psy-rdoq=0.00 / no-rd-refine / no-lossless / cbqpoffs=0 / crqpoffs=0 / rc=crf / crf=16.0 / qcomp=0.75 / qpstep=4 / stats-write=0 / stats-read=0 / vbv-maxrate=50000 / vbv-bufsize=50000 / vbv-init=0.9 / crf-max=0.0 / crf-min=0.0 / ipratio=1.40 / pbratio=1.30 / aq-mode=1 / aq-strength=1.00 / cutree / zone-count=0 / no-strict-cbr / qg-size=32 / no-rc-grain / qpmax=69 / qpmin=0 / no-const-vbv / sar=1 / overscan=0 / videoformat=5 / range=0 / colorprim=1 / transfer=1 / colormatrix=1 / chromaloc=0 / display-window=0 / max-cll=0,0 / min-luma=0 / max-luma=1023 / log2-max-poc-lsb=8 / vui-timing-info / vui-hrd-info / slices=1 / no-opt-qp-pps / no-opt-ref-list-length-pps / no-multi-pass-opt-rps / scenecut-bias=0.05 / no-opt-cu-delta-qp / no-aq-motion / no-hdr / no-hdr-opt / no-dhdr10-opt / no-idr-recovery-sei / analysis-reuse-level=5 / scale-factor=0 / refine-intra=0 / refine-inter=0 / refine-mv=0 / no-limit-sao / ctu-info=0 / no-lowpass-dct / refine-mv-type=0 / copy-pic=1 / max-ausize-factor=1.0 / no-dynamic-refine / no-single-sei
Default                                  : Yes
Forced                                   : No
Color range                              : Limited
Color primaries                          : BT.709
Transfer characteristics                 : BT.709
Matrix coefficients                      : BT.709

Audio #1
ID                                       : 2
Format                                   : AC-3
Format/Info                              : Audio Coding 3
Codec ID                                 : A_AC3
Duration                                 : 2 h 11 min
Bit rate mode                            : Constant
Bit rate                                 : 448 kb/s
Channel(s)                               : 6 channels
Channel positions                        : Front: L C R, Side: L R, LFE
Sampling rate                            : 48.0 kHz
Frame rate                               : 31.250 FPS (1536 SPF)
Bit depth                                : 16 bits
Compression mode                         : Lossy
Stream size                              : 422 MiB (8%)
Title                                    : ПД - Blu-Ray
Language                                 : Ukrainian
Service kind                             : Complete Main
Default                                  : Yes
Forced                                   : Yes

Audio #2
ID                                       : 3
Format                                   : AC-3
Format/Info                              : Audio Coding 3
Codec ID                                 : A_AC3
Duration                                 : 2 h 11 min
Bit rate mode                            : Constant
Bit rate                                 : 640 kb/s
Channel(s)                               : 6 channels
Channel positions                        : Front: L C R, Side: L R, LFE
Sampling rate                            : 48.0 kHz
Frame rate                               : 31.250 FPS (1536 SPF)
Bit depth                                : 16 bits
Compression mode                         : Lossy
Stream size                              : 603 MiB (11%)
Title                                    : Original
Language                                 : English
Service kind                             : Complete Main
Default                                  : No
Forced                                   : No

Text #1
ID                                       : 4
Format                                   : UTF-8
Codec ID                                 : S_TEXT/UTF8
Codec ID/Info                            : UTF-8 Plain Text
Duration                                 : 2 h 10 min
Bit rate                                 : 60 b/s
Count of elements                        : 1494
Stream size                              : 57.5 KiB (0%)
Title                                    : Full
Language                                 : Ukrainian
Default                                  : Yes
Forced                                   : No

Text #2
ID                                       : 5
Format                                   : UTF-8
Codec ID                                 : S_TEXT/UTF8
Codec ID/Info                            : UTF-8 Plain Text
Duration                                 : 2 h 2 min
Bit rate                                 : 40 b/s
Count of elements                        : 1418
Stream size                              : 36.4 KiB (0%)
Title                                    : Full
Language                                 : English
Default                                  : No
Forced                                   : No

Menu
00:00:00.000                             : en:Chapter 01
00:04:04.786                             : en:Chapter 02
00:05:59.776                             : en:Chapter 03
00:09:08.798                             : en:Chapter 04
00:11:55.798                             : en:Chapter 05
00:17:32.468                             : en:Chapter 06
00:23:21.191                             : en:Chapter 07
00:27:36.029                             : en:Chapter 08
00:33:10.238                             : en:Chapter 09
00:37:06.515                             : en:Chapter 10
00:41:30.654                             : en:Chapter 11
00:45:47.244                             : en:Chapter 12
00:51:57.739                             : en:Chapter 13
00:56:01.775                             : en:Chapter 14
01:00:55.985                             : en:Chapter 15
01:03:50.910                             : en:Chapter 16
01:07:29.045                             : en:Chapter 17
01:11:19.191                             : en:Chapter 18
01:15:32.819                             : en:Chapter 19
01:20:14.976                             : en:Chapter 20
01:27:47.178                             : en:Chapter 21
01:30:17.203                             : en:Chapter 22
01:34:03.929                             : en:Chapter 23
01:38:29.528                             : en:Chapter 24
01:40:52.546                             : en:Chapter 25
01:44:13.121                             : en:Chapter 26
01:51:51.871                             : en:Chapter 27
01:56:51.004                             : en:Chapter 28
02:01:02.713                             : en:Chapter 29
02:04:05.146                             : en:Chapter 30
Світлини



3. Той, що біжить лабіринтом: Ліки від смерті / Maze Runner: The Death Cure (2018) 1080p H.265 Ukr/Eng | Sub Ukr/Eng
Той, що біжить лабіринтом: Ліки від смерті / Maze Runner: The Death Cure (2018) 1080p H.265 Ukr/Eng | Sub Ukr/Eng

Той, що біжить лабіринтом. Трилогія / The Maze Runner. Trilogy (2014-2018) 1080p H.265 Ukr/Eng | Sub Ukr/Eng


Жанр: бойовик, пригоди, трилер, фантастика
Країна: США
Кінокомпанія: Gotham Group, Temple Hill Entertainment, Twentieth Century Fox See
Режисер: Вес Болл
Актори: Ділан О’Брайєн, Томас Броді Сенгстер, Роза Салазар, Кая Скоделаріо, Лі Гі-хон, Волтон Гоггінс, Кетрін МакНамара, Ейден Ґіллен, Наталі Еммануель, Патриція Кларксон та інші

Сюжет:
Томас (Ділан О’Брайєн) разом з іншими мешканцями лабіринту дізнається, що вірус, який вразив населення планети, виліковний. Тепер мета юнаків дізнатися істинну ціль побудови Лабіринту. Саме це допоможе їм вибратися на свободу та спробувати врятувати людство. Вони збираються на чергову вилазку в лабіринт, яка у будь-якому випадку має стати для кожного з них останньою.

Тривалість: 02:23:52
Якість:
Відео:
кодек: H.265 (HEVC)
розмір кадру: 1920 x 800
бітрейт: 3 914 кб/с
бітова глибина: 10 біт
Увага! Перед завантаженням переконайтесь, що ваш пристрій відтворення (та/або ПЗ) підтримує H.265 (HEVC)

Аудіо # 1:
мова: українська
переклад: професійний дубльований
кодек: AC-3 5.1
бітрейт: 448 кб/с

Аудіо # 2:
мова: англійська
переклад: оригінал
кодек: AC-3 5.1
бітрейт: 448 кб/с

Субтитри # 1:
мова: українська (Forced),
тип: програмні (м'які)
формат: *.srt

Субтитри # 2:
мова: українська (Full),
тип: програмні (м'які)
формат: *.srt

Субтитри # 3:
мова: англійська (Full),
тип: програмні (м'які)
формат: *.srt

Субтитри # 4:
мова: англійська (SDH),
тип: програмні (м'які)
формат: *.srt


Info
Код:
General
Unique ID                                : 198541208864469763967330953992739875056 (0x955DA55BF9DAB51FEE2CCBFFECDDE8F0)
Complete name                            : F:\Video\The Maze Runner. Trilogy (2015-2018) 1080p H.265 [UKR_ENG] [Hurtom]\3. The Maze Runner. The Death Cure (2018) 1080p H.265 [UKR_ENG] [Hurtom].
Format                                   :
Format version                           : Version 4 / Version 2
File size                                : 4.84 GiB
Duration                                 : 2 h 23 min
Overall bit rate                         : 4 813 kb/s
Movie name                               : The Maze Runner. The Death Cure (2018)
Encoded date                             : UTC 2019-02-13 11:59:08
Writing application                      : v20.0.0 ('I Am The Sun') 64-bit
Writing library                          : libebml v1.3.5 + v1.4.8
Cover                                    : Yes
Attachments                              : cover.jpg

Video
ID                                       : 1
Format                                   : HEVC
Format/Info                              : High Efficiency Video Coding
Format profile                           : Main [email protected]@High
Codec ID                                 : V_MPEGH/ISO/HEVC
Duration                                 : 2 h 23 min
Bit rate                                 : 3 914 kb/s
Width                                    : 1 920 pixels
Height                                   : 800 pixels
Display aspect ratio                     : 2.40:1
Frame rate mode                          : Constant
Frame rate                               : 23.976 (24000/1001) FPS
Color space                              : YUV
Chroma subsampling                       : 4:2:0
Bit depth                                : 10 bits
Bits/(Pixel*Frame)                       : 0.106
Stream size                              : 3.93 GiB (81%)
Title                                    : The Maze Runner. The Death Cure (2018)
Writing library                          : x265 2.8+74-fd517ae68f93:[Windows][GCC 7.3.0][64 bit] 10bit
Encoding settings                        : cpuid=1049583 / frame-threads=5 / numa-pools=4 / wpp / no-pmode / no-pme / no-psnr / no-ssim / log-level=3 / input-csp=1 / input-res=1920x800 / interlace=0 / total-frames=0 / level-idc=41 / high-tier=1 / uhd-bd=0 / ref=5 / allow-non-conformance / no-repeat-headers / annexb / no-aud / no-hrd / info / hash=0 / no-temporal-layers / open-gop / min-keyint=24 / keyint=240 / gop-lookahead=0 / bframes=9 / b-adapt=2 / b-pyramid / bframe-bias=0 / rc-lookahead=40 / lookahead-slices=5 / scenecut=40 / radl=0 / no-intra-refresh / ctu=64 / min-cu-size=8 / no-rect / no-amp / max-tu-size=32 / tu-inter-depth=1 / tu-intra-depth=1 / limit-tu=0 / rdoq-level=0 / dynamic-rd=0.00 / no-ssim-rd / signhide / no-tskip / nr-intra=0 / nr-inter=0 / no-constrained-intra / strong-intra-smoothing / max-merge=2 / limit-refs=3 / no-limit-modes / me=3 / subme=7 / merange=57 / temporal-mvp / weightp / no-weightb / no-analyze-src-pics / deblock=-3:-3 / no-sao / no-sao-non-deblock / rd=3 / no-early-skip / rskip / no-fast-intra / no-tskip-fast / no-cu-lossless / no-b-intra / no-splitrd-skip / rdpenalty=0 / psy-rd=1.00 / psy-rdoq=0.00 / no-rd-refine / no-lossless / cbqpoffs=0 / crqpoffs=0 / rc=crf / crf=18.0 / qcomp=0.75 / qpstep=4 / stats-write=0 / stats-read=0 / vbv-maxrate=50000 / vbv-bufsize=50000 / vbv-init=0.9 / crf-max=0.0 / crf-min=0.0 / ipratio=1.40 / pbratio=1.30 / aq-mode=1 / aq-strength=1.00 / cutree / zone-count=0 / no-strict-cbr / qg-size=32 / no-rc-grain / qpmax=69 / qpmin=0 / no-const-vbv / sar=1 / overscan=0 / videoformat=5 / range=0 / colorprim=1 / transfer=1 / colormatrix=1 / chromaloc=0 / display-window=0 / max-cll=0,0 / min-luma=0 / max-luma=1023 / log2-max-poc-lsb=8 / vui-timing-info / vui-hrd-info / slices=1 / no-opt-qp-pps / no-opt-ref-list-length-pps / no-multi-pass-opt-rps / scenecut-bias=0.05 / no-opt-cu-delta-qp / no-aq-motion / no-hdr / no-hdr-opt / no-dhdr10-opt / no-idr-recovery-sei / analysis-reuse-level=5 / scale-factor=0 / refine-intra=0 / refine-inter=0 / refine-mv=0 / no-limit-sao / ctu-info=0 / no-lowpass-dct / refine-mv-type=0 / copy-pic=1 / max-ausize-factor=1.0 / no-dynamic-refine / no-single-sei
Language                                 : English
Default                                  : Yes
Forced                                   : No
Color range                              : Limited
Color primaries                          : BT.709
Transfer characteristics                 : BT.709
Matrix coefficients                      : BT.709

Audio #1
ID                                       : 2
Format                                   : AC-3
Format/Info                              : Audio Coding 3
Codec ID                                 : A_AC3
Duration                                 : 2 h 23 min
Bit rate mode                            : Constant
Bit rate                                 : 448 kb/s
Channel(s)                               : 6 channels
Channel positions                        : Front: L C R, Side: L R, LFE
Sampling rate                            : 48.0 kHz
Frame rate                               : 31.250 FPS (1536 SPF)
Bit depth                                : 16 bits
Compression mode                         : Lossy
Stream size                              : 461 MiB (9%)
Title                                    : ПД - Blu-Ray
Language                                 : Ukrainian
Service kind                             : Complete Main
Default                                  : Yes
Forced                                   : Yes

Audio #2
ID                                       : 3
Format                                   : AC-3
Format/Info                              : Audio Coding 3
Codec ID                                 : A_AC3
Duration                                 : 2 h 23 min
Bit rate mode                            : Constant
Bit rate                                 : 448 kb/s
Channel(s)                               : 6 channels
Channel positions                        : Front: L C R, Side: L R, LFE
Sampling rate                            : 48.0 kHz
Frame rate                               : 31.250 FPS (1536 SPF)
Bit depth                                : 16 bits
Compression mode                         : Lossy
Stream size                              : 461 MiB (9%)
Title                                    : Original
Language                                 : English
Service kind                             : Complete Main
Default                                  : No
Forced                                   : No

Text #1
ID                                       : 4
Format                                   : UTF-8
Codec ID                                 : S_TEXT/UTF8
Codec ID/Info                            : UTF-8 Plain Text
Duration                                 : 2 h 19 min
Bit rate                                 : 0 b/s
Count of elements                        : 8
Stream size                              : 258 Bytes (0%)
Title                                    : Forced
Language                                 : Ukrainian
Default                                  : Yes
Forced                                   : Yes

Text #2
ID                                       : 5
Format                                   : UTF-8
Codec ID                                 : S_TEXT/UTF8
Codec ID/Info                            : UTF-8 Plain Text
Duration                                 : 2 h 20 min
Bit rate                                 : 49 b/s
Count of elements                        : 1397
Stream size                              : 50.4 KiB (0%)
Title                                    : Full
Language                                 : Ukrainian
Default                                  : No
Forced                                   : No

Text #3
ID                                       : 6
Format                                   : UTF-8
Codec ID                                 : S_TEXT/UTF8
Codec ID/Info                            : UTF-8 Plain Text
Duration                                 : 2 h 15 min
Bit rate                                 : 35 b/s
Count of elements                        : 1475
Stream size                              : 35.5 KiB (0%)
Title                                    : Full
Language                                 : English
Default                                  : No
Forced                                   : No

Text #4
ID                                       : 7
Format                                   : UTF-8
Codec ID                                 : S_TEXT/UTF8
Codec ID/Info                            : UTF-8 Plain Text
Duration                                 : 2 h 15 min
Bit rate                                 : 40 b/s
Count of elements                        : 1688
Stream size                              : 40.6 KiB (0%)
Title                                    : SDH
Language                                 : English
Default                                  : No
Forced                                   : No

Menu
00:00:00.000                             : en:Chapter 1
00:11:31.607                             : en:Chapter 2
00:15:59.750                             : en:Chapter 3
00:20:08.457                             : en:Chapter 4
00:24:34.890                             : en:Chapter 5
00:30:40.547                             : en:Chapter 6
00:36:47.330                             : en:Chapter 7
00:43:15.342                             : en:Chapter 8
00:48:06.341                             : en:Chapter 9
00:55:17.397                             : en:Chapter 10
01:02:42.925                             : en:Chapter 11
01:07:14.488                             : en:Chapter 12
01:11:56.061                             : en:Chapter 13
01:15:48.210                             : en:Chapter 14
01:23:20.328                             : en:Chapter 15
01:29:45.421                             : en:Chapter 16
01:34:00.593                             : en:Chapter 17
01:40:09.795                             : en:Chapter 18
01:43:33.081                             : en:Chapter 19
01:53:38.645                             : en:Chapter 20
01:59:43.885                             : en:Chapter 21
02:04:49.398                             : en:Chapter 22
02:10:03.086                             : en:Chapter 23
02:18:03.858                             : en:Chapter 24
Світлини





Джерело: &
Особиста оцінка: 7 - моїй подрузі не сподобалося


Бронзовий реліз (на рейтинг впливає 75% завантаженого)
 Трекер:    Зареєстрований   

Завантажити / скачати фільм українською



відео для новачків



 Зареєстрований:   2019-02-16 13:31
 Розмір:   15.38 GB 
 Оцінка фільму:   9.5/10 (Голосів: 4)
   
amerika 
Частий відвідувач


З нами з: 07.02.12
Востаннє: 19.04.19
Повідомлень: 42

2019-02-16 20:13  
-Star-Lord- 
VIP


З нами з: 09.08.18
Востаннє: 19.04.19
Повідомлень: 736

2019-02-16 21:14  
amerika
Знаю, та цей реліз якісніший.

Ваш часовий пояс: GMT + 2 Години

Нова тема   Відповісти