Оверлорд / Overlord (2018) 1080p H.265 Ukr/Eng | Sub Eng

Нові коментарі

Нова тема   Відповісти
Автор Повідомлення
Anonymous 







2019-02-16 13:14  
Оверлорд / Overlord (2018) 1080p H.265 Ukr/Eng | Sub Eng

Оверлорд / Overlord (2018) 1080p H.265 Ukr/Eng | Sub Eng


Жанр: бойовик, військовий, детектив, трилер, жахи, фантастика
Країна: США, Канада
Кінокомпанія: Paramount Pictures, Bad Robot
Режисер: Джуліус Ейвері
Актори: Йован Адепо, Уайатт Расселл, Йохан Філіп Асбек, Джон Магаро, Йен де Кестекер, Джейкоб Андерсон, Домінік Епплуайт, Бокім Вудбайн, Хорхе Леон Мартінес

Сюжет:
Війна дуже сильно змінює людей. Якщо ще вчора ти міг гуляти зі своїм собакою у дворі або косити свій газон, то зараз ти повинен убивати людей, інакше сам загинеш. День Д – це один із найбільш пам'ятних днів Другої Світової війни. Це операція "Оверлорд" – висадка союзних військ у Нормандії, Франція, з метою вигнати нацистів із окупованих територій. У двох американських десантників було унікальне завдання. Вони мали проникнути в нацистське селище, щоб знищити їх радіощоглу. Але те, що диверсанти знайшли в селі, їх шокувало. Нацисти проводили багато експериментів над людьми, що призвело до створення чудовиськ. Треба знищити це місце, щоб більше жодна людина не постраждала.

Тривалість: 01:49:47
Якість:
Відео:
кодек: H.265 (HEVC)
розмір кадру: 1920 x 800
бітрейт: 7 039 кб/с
бітова глибина: 10 біт
Увага! Перед завантаженням переконайтесь, що ваш пристрій відтворення (та/або ПЗ) підтримує H.265 (HEVC)

Аудіо # 1:
мова: українська
переклад: професійний дубльований
кодек: AC-3 5.1
бітрейт: 384 кб/с
примітка: є діалоги німецькою без дубляжу

Аудіо # 2:
мова: англійська
переклад: оригінал
кодек: AC-3 5.1
бітрейт: 640 кб/с

Субтитри # 1:
мова: українська (Forced),
тип: програмні (м'які)
формат: *.srt

Субтитри # 2:
мова: англійська (SDH),
тип: програмні (м'які)
формат: *.srt


Info
Код:
General
Unique ID                                : 181141185093895088814535709533710078750 (0x884685F3EF858164DD7B763EB98C531E)
Complete name                            : Overlord (2018) 1080p H.265 [UKR_ENG] [Hurtom].
Format                                   :
Format version                           : Version 4 / Version 2
File size                                : 6.18 GiB
Duration                                 : 1 h 49 min
Overall bit rate                         : 8 065 kb/s
Movie name                               : Оверлорд / Overlord (2018)
Encoded date                             : UTC 2019-07-17 12:09:13
Writing application                      : v20.0.0 ('I Am The Sun') 64-bit
Writing library                          : libebml v1.3.5 + v1.4.8
Cover                                    : Yes
Attachments                              : cover.jpg

Video
ID                                       : 1
Format                                   : HEVC
Format/Info                              : High Efficiency Video Coding
Format profile                           : Main [email protected]@High
Codec ID                                 : V_MPEGH/ISO/HEVC
Duration                                 : 1 h 49 min
Bit rate                                 : 7 038 kb/s
Width                                    : 1 920 pixels
Height                                   : 800 pixels
Display aspect ratio                     : 2.40:1
Frame rate mode                          : Constant
Frame rate                               : 23.976 (24000/1001) FPS
Color space                              : YUV
Chroma subsampling                       : 4:2:0
Bit depth                                : 10 bits
Bits/(Pixel*Frame)                       : 0.191
Stream size                              : 5.40 GiB (87%)
Title                                    : Оверлорд / Overlord (2018)
Writing library                          : x265 3.0+1-ed72af837053:[Windows][GCC 8.2.0][64 bit] 10bit
Encoding settings                        : cpuid=1111039 / frame-threads=4 / numa-pools=14,14 / wpp / pmode / no-pme / no-psnr / no-ssim / log-level=2 / input-csp=1 / input-res=1920x800 / interlace=0 / total-frames=157937 / level-idc=41 / high-tier=1 / uhd-bd=0 / ref=3 / no-allow-non-conformance / no-repeat-headers / annexb / no-aud / no-hrd / info / hash=0 / no-temporal-layers / open-gop / min-keyint=23 / keyint=240 / gop-lookahead=0 / bframes=4 / b-adapt=2 / b-pyramid / bframe-bias=0 / rc-lookahead=20 / lookahead-slices=5 / scenecut=40 / radl=0 / no-splice / no-intra-refresh / ctu=32 / min-cu-size=8 / no-rect / no-amp / max-tu-size=32 / tu-inter-depth=1 / tu-intra-depth=1 / limit-tu=0 / rdoq-level=0 / dynamic-rd=0.00 / no-ssim-rd / signhide / no-tskip / nr-intra=0 / nr-inter=0 / no-constrained-intra / no-strong-intra-smoothing / max-merge=2 / limit-refs=0 / no-limit-modes / me=2 / subme=5 / merange=32 / temporal-mvp / weightp / no-weightb / no-analyze-src-pics / deblock=-3:-3 / no-sao / no-sao-non-deblock / rd=3 / no-early-skip / rskip / no-fast-intra / no-tskip-fast / no-cu-lossless / no-b-intra / no-splitrd-skip / rdpenalty=0 / psy-rd=2.00 / psy-rdoq=0.00 / no-rd-refine / no-lossless / cbqpoffs=0 / crqpoffs=0 / rc=crf / crf=18.0 / qcomp=0.60 / qpstep=4 / stats-write=0 / stats-read=0 / vbv-maxrate=50000 / vbv-bufsize=50000 / vbv-init=0.9 / crf-max=0.0 / crf-min=0.0 / ipratio=1.40 / pbratio=1.30 / aq-mode=3 / aq-strength=0.95 / cutree / zone-count=0 / no-strict-cbr / qg-size=32 / no-rc-grain / qpmax=69 / qpmin=0 / no-const-vbv / sar=0 / overscan=0 / videoformat=5 / range=0 / colorprim=1 / transfer=1 / colormatrix=1 / chromaloc=0 / display-window=0 / max-cll=0,0 / min-luma=0 / max-luma=1023 / log2-max-poc-lsb=8 / vui-timing-info / vui-hrd-info / slices=1 / no-opt-qp-pps / no-opt-ref-list-length-pps / no-multi-pass-opt-rps / scenecut-bias=0.05 / no-opt-cu-delta-qp / no-aq-motion / no-hdr / no-hdr-opt / no-dhdr10-opt / no-idr-recovery-sei / analysis-reuse-level=5 / scale-factor=0 / refine-intra=0 / refine-inter=0 / refine-mv=0 / refine-ctu-distortion=0 / no-limit-sao / ctu-info=0 / no-lowpass-dct / refine-analysis-type=0 / copy-pic=1 / max-ausize-factor=1.0 / no-dynamic-refine / no-single-sei / no-hevc-aq / qp-adaptation-range=1.00
Language                                 : English
Default                                  : Yes
Forced                                   : No
Color range                              : Limited
Color primaries                          : BT.709
Transfer characteristics                 : BT.709
Matrix coefficients                      : BT.709

Audio #1
ID                                       : 2
Format                                   : AC-3
Format/Info                              : Audio Coding 3
Codec ID                                 : A_AC3
Duration                                 : 1 h 49 min
Bit rate mode                            : Constant
Bit rate                                 : 384 kb/s
Channel(s)                               : 6 channels
Channel positions                        : Front: L C R, Side: L R, LFE
Sampling rate                            : 48.0 kHz
Frame rate                               : 31.250 FPS (1536 SPF)
Bit depth                                : 16 bits
Compression mode                         : Lossy
Stream size                              : 301 MiB (5%)
Title                                    : 5.1 @ 384 kbps - iTunes
Language                                 : Ukrainian
Service kind                             : Complete Main
Default                                  : Yes
Forced                                   : Yes

Audio #2
ID                                       : 3
Format                                   : AC-3
Format/Info                              : Audio Coding 3
Codec ID                                 : A_AC3
Duration                                 : 1 h 49 min
Bit rate mode                            : Constant
Bit rate                                 : 640 kb/s
Channel(s)                               : 6 channels
Channel positions                        : Front: L C R, Side: L R, LFE
Sampling rate                            : 48.0 kHz
Frame rate                               : 31.250 FPS (1536 SPF)
Bit depth                                : 16 bits
Compression mode                         : Lossy
Stream size                              : 503 MiB (8%)
Title                                    : 5.1 @ 640 kbps
Language                                 : English
Service kind                             : Complete Main
Default                                  : No
Forced                                   : No

Text #1
ID                                       : 4
Format                                   : UTF-8
Codec ID                                 : S_TEXT/UTF8
Codec ID/Info                            : UTF-8 Plain Text
Duration                                 : 1 h 22 min
Bit rate                                 : 4 b/s
Count of elements                        : 94
Stream size                              : 3.01 KiB (0%)
Title                                    : Forced
Language                                 : Ukrainian
Default                                  : Yes
Forced                                   : Yes

Text #2
ID                                       : 5
Format                                   : UTF-8
Codec ID                                 : S_TEXT/UTF8
Codec ID/Info                            : UTF-8 Plain Text
Duration                                 : 1 h 42 min
Bit rate                                 : 49 b/s
Count of elements                        : 1447
Stream size                              : 37.3 KiB (0%)
Title                                    : SDH
Language                                 : English
Default                                  : No
Forced                                   : No

Menu
00:00:00.000                             : en:Chapter 01
00:06:31.099                             : en:Chapter 02
00:13:47.493                             : en:Chapter 03
00:20:31.313                             : en:Chapter 04
00:26:27.795                             : en:Chapter 05
00:34:08.964                             : en:Chapter 06
00:41:10.593                             : en:Chapter 07
00:48:41.377                             : en:Chapter 08
00:55:50.889                             : en:Chapter 09
01:03:21.464                             : en:Chapter 10
01:10:28.599                             : en:Chapter 11
01:17:21.887                             : en:Chapter 12
01:25:47.601                             : en:Chapter 13
01:32:19.159                             : en:Chapter 14
01:38:48.464                             : en:Chapter 15
01:42:39.195                             : en:Chapter 16
Світлини




Джерело: &
Особиста оцінка: 0 - не дивився


 Трекер:    Зареєстрований   

Завантажити / скачати фільм українською



відео для новачків



 Зареєстрований:   2019-07-17 19:25
 Розмір:   6.18 GB 
 Оцінка фільму:   7.8/10 (Голосів: 19)
   
Інші релізи
   Оверлорд / Overlord (2018) Remux 1080p Ukr/Eng | Sub Eng staf777  1 / 0   24.47 GB   2019-07-31 19:51 
   Оверлорд / Overlord (2018) Ukr/Eng antik_2008  8 / 0   2.2 GB   2019-07-20 16:38 
   Оверлорд / Overlord (2018) 1080p Ukr/Eng | Sub Eng antik_2008  4 / 0   16.4 GB   2019-07-17 12:04 
   Оверлорд / Overlord (2018) AVC Ukr/Eng | Sub Eng 11FrYkT  23 / 2   1.98 GB   2019-07-17 09:09 
   Оверлорд / Overlord (2018) 720p Ukr/Eng | Sub Eng 11FrYkT  12 / 0   5.08 GB   2019-07-17 07:14 
mmmman 
Свій


З нами з: 01.08.09
Востаннє: 15.10.19
Повідомлень: 50

2019-08-12 22:02  
Весь час було відчуття, що фільм на межі - ще трошки і серед режисерів з'явиться Тарантіно. Wide grin
ljuter 
Новенький


З нами з: 27.11.13
Востаннє: 14.10.19
Повідомлень: 2

2019-10-01 00:59  
Чудовий фільм
Ваш часовий пояс: GMT + 2 Години

Нова тема   Відповісти