Приватна війна / Private War (2018) Remux 1080p Ukr/Eng | Sub Eng

Нові коментарі

Нова тема   Відповісти
Автор Повідомлення
staf777 
Відео Гуртом - підтримка та поширення
Відео Гуртом - підтримка та поширення


З нами з: 16.11.16
Востаннє: 14.12.19
Повідомлень: 3063

2019-02-15 16:13  
Приватна війна / Private War (2018) Remux 1080p Ukr/Eng | Sub Eng

Приватна війна / Private War (2018) Remux 1080p Ukr/Eng | Sub Eng


Жанр: драма, біографічний, військовий
Країна: Велика Британія, США



Кінокомпанія: Acacia Filmed Entertainment, Denver and Delilah Productions, Kamala Films, Savvy Media Holdings, Thunder Road
Режисер: Метт Хейнеман
Актори: Розамунд Пайк, Грег Вайз, Олександра Моен, Том Холландер, Фей Марсей, Джесутасан Антонітасан, Ніккі Амука-Берд, Аманда Дрю, Хілтон МакРей, Фейді Ельсайєд

Сюжет:
Відмінна, хоч і важка військово-біографічна драма про одну з найвідоміших військових кореспондентів сучасності, яка присвятила своє життя висвітленню страшних подій кривавих військових конфліктів.

Події фільму охоплюють період з 2001-ого і по 2012 рік. У центрі сюжету відома на весь світ англійська журналістка Мері Колвін, яка після отримання серйозної травми стикається з великими психологічними проблемами. Але в підсумку, незважаючи на постійний стрес, Колвін раз по раз відправляється в гарячі точки, намагаючись розповісти всьому світу про страшні жахи кривавого режиму того чи іншого диктатора…


Тривалість: 01:50:35
Якість: Remux 1080p
Відео:
кодек:
розмір кадру: 1920x1080
бітрейт: 31.1 Mб/с

Аудіо # 1:
мова: українська
переклад: багатоголосий закадровий
кодек: 5.1
бітрейт: 384 кб/с

Аудіо # 2:
мова: англійська
переклад: оригінал
кодек: -HD MA 5.1
бітрейт: 3484 кб/с

Субтитри:
мова: англійська
тип: програмні (м'які)
формат: *.srt
Info
General
Unique ID : 132820716750296158363550515595385928128 (0x63EC56ED905A28DC9113D48703D679C0)
Complete name : S:\» HD українською » Фільми в HD\Драма\Private War (2018) Remux 1080p [UKR_ENG] [Hurtom].
Format :
Format version : Version 4
File size : 27.0 GiB
Duration : 1 h 50 min
Overall bit rate mode : Variable
Overall bit rate : 35.0 Mb/s
Movie name : Private War (2018) Remux 1080p [UKR_ENG] [Hurtom]
Encoded date : UTC 2019-02-15 14:38:55
Writing application : v30.1.0 ('Forever And More') 64-bit
Writing library : libebml v1.3.6 + v1.4.9
Cover : Yes
Attachments : cover.jpg

Video
ID : 1
Format : AVC
Format/Info : Advanced Video Codec
Format profile : [email protected]
Format settings : CABAC / 4 Ref Frames
Format settings, CABAC : Yes
Format settings, ReFrames : 4 frames
Codec ID : V_MPEG4/ISO/AVC
Duration : 1 h 50 min
Bit rate mode : Variable
Bit rate : 31.1 Mb/s
Maximum bit rate : 35.0 Mb/s
Width : 1 920 pixels
Height : 1 080 pixels
Display aspect ratio : 16:9
Frame rate mode : Constant
Frame rate : 23.976 (24000/1001) FPS
Color space : YUV
Chroma subsampling : 4:2:0
Bit depth : 8 bits
Scan type : Progressive
Bits/(Pixel*Frame) : 0.626
Stream size : 24.1 GiB (89%)
Language : English
Default : Yes
Forced : No

Audio #1
ID : 2
Format : AC-3
Format/Info : Audio Coding 3
Commercial name : Dolby Digital
Codec ID : A_AC3
Duration : 1 h 50 min
Bit rate mode : Constant
Bit rate : 384 kb/s
Channel(s) : 6 channels
Channel layout : L R C LFE Ls Rs
Sampling rate : 48.0 kHz
Frame rate : 31.250 FPS (1536 SPF)
Bit depth : 16 bits
Compression mode : Lossy
Stream size : 304 MiB (1%)
Language : Ukrainian
Service kind : Complete Main
Default : Yes
Forced : Yes

Audio #2
ID : 3
Format : XLL
Format/Info : Digital Theater Systems
Commercial name : -HD Master Audio
Codec ID : A_DTS
Duration : 1 h 50 min
Bit rate mode : Variable
Bit rate : 3 484 kb/s
Channel(s) : 6 channels
Channel layout : C L R Ls Rs LFE
Sampling rate : 48.0 kHz
Frame rate : 93.750 FPS (512 SPF)
Bit depth : 24 bits
Compression mode : Lossless
Stream size : 2.69 GiB (10%)
Language : English
Default : No
Forced : No

Text
ID : 4
Format : UTF-8
Codec ID : S_TEXT/UTF8
Codec ID/Info : UTF-8 Plain Text
Duration : 1 h 41 min
Bit rate : 45 b/s
Count of elements : 959
Stream size : 34.1 KiB (0%)
Language : English
Default : No
Forced : No

Menu
00:00:00.000 : en:Chapter 01
00:05:16.149 : en:Chapter 02
00:11:12.505 : en:Chapter 03
00:17:24.668 : en:Chapter 04
00:22:27.179 : en:Chapter 05
00:30:37.961 : en:Chapter 06
00:36:41.240 : en:Chapter 07
00:39:07.011 : en:Chapter 08
00:47:09.785 : en:Chapter 09
00:51:01.183 : en:Chapter 10
00:56:59.165 : en:Chapter 11
01:02:05.179 : en:Chapter 12
01:06:14.095 : en:Chapter 13
01:11:58.355 : en:Chapter 14
01:16:49.104 : en:Chapter 15
01:21:28.758 : en:Chapter 16
01:25:16.653 : en:Chapter 17
01:30:06.776 : en:Chapter 18
01:37:45.901 : en:Chapter 19
01:42:54.334 : en:Chapter 20


Джерело: & DniproFilm
Особиста оцінка: 0 - не дивився


Золотий реліз (завантажене не впливає на рейтинг)
 Трекер:    Зареєстрований   

Завантажити / скачати фільм українською



відео для новачків



 Зареєстрований:   2019-02-15 17:33
 Розмір:   27.05 GB 
 Оцінка фільму:   9.1/10 (Голосів: 10)
   
Інші релізи
   Приватна війна / A Private War (2018) 1080p H.265 Ukr/Eng | Sub Eng -Star-Lord-  8 / 0   6.38 GB   2019-02-16 16:24 
   Приватна війна / A Private War (2018) AVC Ukr/Eng | Sub Eng Sando7  8 / 0   2.05 GB   2019-02-15 21:08 
   Приватна війна / A Private War (2018) ssTAss  17 / 0   1.53 GB   2019-02-15 14:52 
bot 
робот


З нами з: 30.09.07
Востаннє: 26.05.05
Повідомлень: 22652

2019-02-15 17:33  
Тему перенесено з Анонси релізів до форуму Фільми в HD


staf777

andrrrrr 
Новенький


З нами з: 12.11.11
Востаннє: 04.12.19
Повідомлень: 8

2019-02-15 19:11  
військових коресподенток?
ZetterWALL 
Новенький


З нами з: 16.05.14
Востаннє: 13.12.19
Повідомлень: 7

2019-02-15 22:27  
все ж краще кореспондентів
Ваш часовий пояс: GMT + 2 Години

Нова тема   Відповісти