Крильце чи ніжка / L'aile ou la cuisse (1976) Remux 1080p Ukr/Fre | Sub Fre

Нові коментарі

Нова тема   Відповісти
Автор Повідомлення
MakRA 
Поважний учасник


З нами з: 11.11.18
Востаннє: 21.05.19
Повідомлень: 196

2019-02-15 16:49  
Крильце чи ніжка / L'aile ou la cuisse (1976) Remux 1080p Ukr/Fre | Sub Fre

Крильце чи ніжка / L'aile ou la cuisse (1976) Remux 1080p Ukr/Fre | Sub Fre

Український постер:



Жанр: комедія, сімейний
Країна: Франція



Кінокомпанія: Les Films Christian Fechner
Режисер: Клод Зіді [Claude Zidi]
Актори: Луї де Фюнес [Louis de Funès], Колюш [Coluche], Анн Захаріас [Ann Zacharias], Жюльєн Ґійомар [Julien Guiomar], Клоді Жансак [Claude Gensac], Жорж Шамара [Georges Chamarat], Жан Мартен [Jean Martin], Фернан Ґійо [Fernand Guiot], Жерар Букарон [Gérard Boucaron], Антуан Марен [Antoine Marin], Ів Афонсо [Yves Afonso], Раймон Бюссєр [Raymond Bussières], Філіпп Бувар [Philippe Bouvard], Марсель Даліо [Marcel Dalio], Вітторіо Капріолі [Vittorio Caprioli], Данієль Лангле [Daniel Langlet], Мартен Ламотт [Martin Lamotte], Поль Бішілья [Paul Bisciglia], Робер Ломбард [Robert Lombard], П’єр Форже [Pierre Forget], Аврора Маріс [Aurora Maris], Едуардо Берґара Лойманн [Eduardo Bergara Leumann], Альбер Мішель [Albert Michel], Макс Монтавон [Max Montavon], П’єр Деказе [Pierre Decazes], Мак Роней [Mac Ronay], Домінік Даврай [Dominique Davray].

Сюжет:
Головний герой пан Дюшемен - респектабельний укладач щорічного путівника по ресторанах. Авторитет його книги настільки високий, що всі ресторани в Парижі і його околицях прагнуть з'явитися на її сторінках у вигідному світлі.

Це дуже важко, оскільки Дюшемен весь час сам обходить всі заклади, переодягаючись, щоб залишатися невпізнаним. Єдине розчарування Дюшемена — його син, який не бажає йти по стопах батька, мріючи стати клоуном в цирку.

Цікаві факти:


У 1975 році після інфаркту Луї де Фюнес перестав зніматися. У фільмі "Крильце або ніжка" він знову повернувся у кінематограф.
Сцени на фабриці з виробництва продуктів харчування зняті на підприємстві "Aire de Nemours", що знаходиться на південь від Парижа.
Путівник по ресторанах "Дюшмен" є натяком на "Мішлен" - знамениту ресторанну мережу.
На створення персонажу Трікателя, зіграного Жюльєном Гійомаром, авторів фільму надихнув французький промисловець Жак Борель - "Наполеон закусочних швидкого обслуговування", що були в 1970-х у Франції втіленням неякісної їжі. За прикладом Жака Бореля, Жак Трікатель показаний як людина прагматична і відносно груба.
На роль Жерара Дюшмена передбачався П'єр Рішар, але Колюш замінив його, оскільки Рішар був вже зайнятий у іншому фільмі ("Далі - нікуди").


Тривалість: 01:45:10
Якість: Remux 1080p
Відео:
кодек:
розмір кадру: 1920 х 1080
бітрейт: 27.0 Mb/s

Аудіо # 1:
мова: українська
переклад: двоголосий закадровий [1+1]
кодек: 2.0
бітрейт: 192 kb/s
Про озвучення:

Трансляція каналу 2+2
Ролі озвучили:Дмитро Завадський і Ніна Касторф.
Аудіо # 2:
мова: французька
переклад: оригінал
кодек: -MA 2.0
бітрейт: 1 920 kb/s

Аудіо # 3:
мова: французька
переклад: оригінал
кодек: 2.0
бітрейт: 192 kb/s

Субтитри # 1:
мова: французька
тип: пререндерні
формат: *.pgs

Субтитри # 2:
мова: англійська
тип: програмні (м'які)
формат: *.srt
Info
General
Unique ID : 281314143988283513289238600025634447131 (0xD3A3222472FAFBFBC3EAC636BCDB1F1B)
Complete name : F:\+Фільмографії-Луї Де Фюнес [Louis de Funès]\L'aile ou la cuisse (1976) Remux 1080p UkrFre Sub Fre [Hurtom].
Format :
Format version : Version 4 / Version 2
File size : 21.6 GiB
Duration : 1 h 45 min
Overall bit rate mode : Variable
Overall bit rate : 29.4 Mb/s
Movie name : Крильце чи ніжка / L'aile ou la cuisse (1976) Remux 1080p Ukr/Fre | Sub Fre [Hurtom]
Encoded date : UTC 2019-02-15 09:52:51
Writing application : v25.0.0 ('Prog Noir') 64-bit
Writing library : libebml v1.3.6 + v1.4.9
Cover : Yes
Attachments : cover.jpg

Video
ID : 1
Format : AVC
Format/Info : Advanced Video Codec
Format profile : [email protected]
Format settings, CABAC : Yes
Format settings, RefFrames : 4 frames
Codec ID : V_MPEG4/ISO/AVC
Duration : 1 h 45 min
Bit rate mode : Variable
Bit rate : 27.0 Mb/s
Maximum bit rate : 35.0 Mb/s
Width : 1 920 pixels
Height : 1 080 pixels
Display aspect ratio : 16:9
Frame rate mode : Constant
Frame rate : 24.000 FPS
Standard : NTSC
Color space : YUV
Chroma subsampling : 4:2:0
Bit depth : 8 bits
Scan type : Progressive
Bits/(Pixel*Frame) : 0.543
Stream size : 19.8 GiB (92%)
Title : L'aile ou la cuisse (1976) Remux 1080p Ukr/Fre | Sub Fre [Hurtom]
Language : Ukrainian
Default : Yes
Forced : Yes
Color range : Limited
Color primaries : BT.709
Transfer characteristics : BT.709
Matrix coefficients : BT.709

Audio #1
ID : 2
Format : AC-3
Format/Info : Audio Coding 3
Format settings, Endianness : Big
Codec ID : A_AC3
Duration : 1 h 45 min
Bit rate mode : Constant
Bit rate : 192 kb/s
Channel(s) : 2 channels
Channel positions : Front: L R
Sampling rate : 48.0 kHz
Frame rate : 31.250 FPS (1536 SPF)
Bit depth : 16 bits
Compression mode : Lossy
Stream size : 144 MiB (1%)
Title : DVO [1+1]
Language : Ukrainian
Service kind : Complete Main
Default : Yes
Forced : Yes

Audio #2
ID : 3
Format :
Format/Info : Digital Theater Systems
Format profile : MA / Core
Mode : 16
Format settings, Endianness : Big
Codec ID : A_DTS
Duration : 1 h 45 min
Bit rate mode : Variable / Constant
Bit rate : 1 920 kb/s / 1 509 kb/s
Channel(s) : 2 channels
Channel positions : Front: L R
Sampling rate : 48.0 kHz
Frame rate : 93.750 FPS (512 SPF)
Bit depth : 24 bits
Compression mode : Lossless / Lossy
Stream size : 1.44 GiB (7%)
Title : Original
Language : French
Default : No
Forced : No

Audio #3
ID : 4
Format : AC-3
Format/Info : Audio Coding 3
Format settings, Endianness : Big
Codec ID : A_AC3
Duration : 1 h 45 min
Bit rate mode : Constant
Bit rate : 192 kb/s
Channel(s) : 2 channels
Channel positions : Front: L R
Sampling rate : 48.0 kHz
Frame rate : 31.250 FPS (1536 SPF)
Bit depth : 16 bits
Compression mode : Lossy
Stream size : 144 MiB (1%)
Title : Original
Language : French
Service kind : Complete Main
Default : No
Forced : No

Text #1
ID : 5
Format : PGS
Muxing mode : zlib
Codec ID : S_HDMV/PGS
Codec ID/Info : Picture based subtitle format used on BDs/HD-DVDs
Duration : 1 h 45 min
Bit rate : 40.1 kb/s
Count of elements : 3214
Stream size : 30.2 MiB (0%)
Title : French
Language : French
Default : No
Forced : No

Text #2
ID : 6
Format : UTF-8
Codec ID : S_TEXT/UTF8
Codec ID/Info : UTF-8 Plain Text
Duration : 1 h 41 min
Bit rate : 50 b/s
Count of elements : 963
Stream size : 38.0 KiB (0%)
Title : Eng
Language : English
Default : No
Forced : No

Menu
00:00:00.000 : en:Chapter 1
00:07:41.542 : en:Chapter 2
00:16:24.750 : en:Chapter 3
00:25:40.667 : en:Chapter 4
00:36:44.292 : en:Chapter 5
00:42:57.708 : en:Chapter 6
00:51:04.042 : en:Chapter 7
01:02:19.875 : en:Chapter 8
01:09:50.708 : en:Chapter 9
01:17:52.125 : en:Chapter 10
01:28:56.750 : en:Chapter 11
01:35:38.500 : en:Chapter 12
Скріншоти
Джерело: &

Подяка за створення початкової української доріжки і український постер - rooster
Подяка за фільмографії акторів - Віктор
Особиста оцінка: 10 - без зайвих вагань рекомендую всім!



Золотий реліз (завантажене не впливає на рейтинг)
 Трекер:    Зареєстрований   

Завантажити / скачати фільм українською



відео для новачків



 Зареєстрований:   2019-02-15 16:49
 Розмір:   21.56 GB 
 Оцінка фільму:   10/10 (Голосів: 7)
   
Інші релізи
staf777 
Відео Гуртом - підтримка та поширення
Відео Гуртом - підтримка та поширення


З нами з: 16.11.16
Востаннє: 20.05.19
Повідомлень: 2361

2019-02-15 17:48  
Це шедевр - таких акторів як цей малий не було нема і зараз і навряд будуть
MakRA 
Поважний учасник


З нами з: 11.11.18
Востаннє: 21.05.19
Повідомлень: 196

2019-02-15 18:07  
staf777
Так) Лише одні "Жандарми" І "Фантомас" чого варті, а там ще "Велика прогулянка","Скупий", Пригоди рабина Якова"

LesiaLesia 
Частий відвідувач


З нами з: 03.05.12
Востаннє: 20.05.19
Повідомлень: 33

2019-02-16 12:28  
Чудесний фільм)))
Siegfried 
VIP


З нами з: 01.11.11
Востаннє: 20.05.19
Повідомлень: 261

2019-02-16 12:34  
А може хтось в курсі,

чи є на Толоці окремо фільмографії Де Фюнеса як актора, і Клода Зіді як режисера ?

MakRA 
Поважний учасник


З нами з: 11.11.18
Востаннє: 21.05.19
Повідомлень: 196

2019-02-16 16:53  
Siegfried
клацніть https://toloka.to/t6802

Додано через 52 секунди:

Актори: Луї де Фюнес [Louis de Funès],

Siegfried 
VIP


З нами з: 01.11.11
Востаннє: 20.05.19
Повідомлень: 261

2019-02-16 20:49  
MakRA написано:

Siegfried
клацніть https://toloka.to/t6802

Додано через 52 секунди:

Актори: Луї де Фюнес [Louis de Funès],


Дякую.


Sergioivanidze 
Новенький


З нами з: 15.12.16
Востаннє: 14.05.19
Повідомлень: 1

2019-05-08 15:50  
Цитата:
Путівник по ресторанах "Дюшмен" є натяком на "Мішлен" - знамениту ресторанну мережу.
Мішлен - це не мережа ресторанів. Це путівник по ресторанах, що видається виробником автомобільних шин Мішлен. Від початку був путівником для автомобілістів і зірки присуджені ресторанам мали наступне значення
* - якщо ви опинилися в місті де є такий ресторан, ви маєте його відвідати.
** - якщо ви опинилися в регіоні, де є такий ресторан, ви маєте його відвідати.
*** - якщо ви опинилися в країні, де є такий ресторан, ви маєте його відвідати.
Метою створення пцтівника було підвищення зносу шин )

Ваш часовий пояс: GMT + 2 Години

Нова тема   Відповісти