Той, хто змінює життя / Lifechanger (2018) 1080p Eng | sub Ukr

Нові коментарі

Нова тема   Відповісти
Автор Повідомлення
Chupacabr007 
Свій


З нами з: 07.07.15
Востаннє: 21.08.19
Повідомлень: 77

2019-02-15 12:53  
Той, хто змінює життя / Lifechanger (2018) 1080p Eng | sub Ukr

Той, хто змінює життя / Lifechanger (2018) 1080p Eng | sub Ukr


Жанр: жахи, трилер
Країна: Канада



Кінокомпанія: 9 Light Entertainment, Federgreen Entertainment, Unstable Ground Productions
Режисер: Джастін МакКоннел
Актори: Лора Бурк, Джек Фолі, Еліца Бако, Рейчел ВанДузер, Стів Касан, Білл Оберст, Пітер Хіггінсон

Сюжет:
Дрю - перевертень, який змушений поглинати тіла людей, приймаючи їх вигляд, щоб не загинути болісною смертю. Але у великому місті непомітно знаходити нових жертв не так то й просто. Одного разу він закохується в жінку, чоловіка якої поглинув, і виявляється перед нелегким вибором: приректи її на вічні муки втрати коханої людини або зізнатися у своїй страхітливій суті.


Тривалість: 01:23:56
Якість:
Відео:
кодек:
розмір кадру: 1920 х 800
бітрейт: 2109 кб/с

Аудіо:
мова: англійська
переклад: оригінал
кодек: EAC3 5.1
бітрейт: 640 кб/с

Субтитри:
мова: українська
тип: програмні (м'які)
формат: *.srt
переклад: [SubAutumn]
Скріншоти




Info
General
Complete name : D:\SubAutumn\Films\Lifechanger\Lifechanger.2018 [Eng Sub.Ukr] 1080p [Hurtom].
Format :
Format version : Version 4 / Version 2
File size : 1.64 GiB
Duration : 1h 23mn
Overall bit rate : 2 805 Kbps
Movie name : Lifechanger.2018
Encoded date : UTC 2019-02-14 14:30:27
Writing application : v6.5.0 ('Isn't she lovely') built on Oct 20 2013 12:50:05
Writing library : libebml v1.3.0 + v1.4.1
DURATION : 01:23:55.680000000
NUMBER_OF_FRAMES : 157365
NUMBER_OF_BYTES : 402854400
_STATISTICS_WRITING_APP : v21.0.0 ('Tardigrades Will Inherit The Earth') 64-bit
_STATISTICS_WRITING_DATE_UTC : 2019-01-01 08:05:54
_STATISTICS_TAGS : BPS DURATION NUMBER_OF_FRAMES NUMBER_OF_BYTES

Video
ID : 1
Format : AVC
Format/Info : Advanced Video Codec
Format profile : [email protected]
Format settings, CABAC : Yes
Format settings, ReFrames : 4 frames
Codec ID : V_MPEG4/ISO/AVC
Duration : 1h 23mn
Bit rate : 2 109 Kbps
Width : 1 920 pixels
Height : 800 pixels
Display aspect ratio : 2.40:1
Frame rate mode : Constant
Frame rate : 23.976 fps
Color space : YUV
Chroma subsampling : 4:2:0
Bit depth : 8 bits
Scan type : Progressive
Bits/(Pixel*Frame) : 0.057
Stream size : 1.24 GiB (75%)
Default : Yes
Forced : No
Color range : Limited
Color primaries : BT.709
Transfer characteristics : BT.709
Matrix coefficients : BT.709

Audio
ID : 2
Format : E-AC-3
Format/Info : Audio Coding 3
Format settings, Endianness : Big
Codec ID : A_EAC3
Duration : 1h 23mn
Bit rate mode : Constant
Bit rate : 640 Kbps
Channel(s) : 6 channels
Channel positions : Front: L C R, Side: L R, LFE
Sampling rate : 48.0 KHz
Compression mode : Lossy
Stream size : 384 MiB (23%)
Title : Lifechanger
Language : English
Default : Yes
Forced : No

Text
ID : 3
Format : UTF-8
Codec ID : S_TEXT/UTF8
Codec ID/Info : UTF-8 Plain Text
Title : Lifechanger
Language : Ukrainian
Default : Yes
Forced : No
Джерело:


Золотий реліз (завантажене не впливає на рейтинг)
 Трекер:    Зареєстрований   

Завантажити / скачати фільм українською



відео для новачків



 Зареєстрований:   2019-02-15 12:53
 Розмір:   1.64 GB 
 Оцінка фільму:   -/10 (Голосів: 0)
   
11FrYkT 
Модератор відео


З нами з: 20.02.11
Востаннє: 21.08.19
Повідомлень: 6141

2019-02-16 09:30  
Chupacabr007 , додайте звіт Медіаінфо
Chupacabr007 
Свій


З нами з: 07.07.15
Востаннє: 21.08.19
Повідомлень: 77

2019-02-17 13:04  
11FrYkT
Додав)

danica 
Новенький


З нами з: 21.11.17
Востаннє: 13.08.19
Повідомлень: 3

2019-02-18 18:01  
Підтримайте роздачу будь ласка
tpolit 
VIP


З нами з: 10.01.15
Востаннє: 21.08.19
Повідомлень: 462

2019-02-19 18:32  
Кінцівку відверто запороли.
Ваш часовий пояс: GMT + 2 Години

Нова тема   Відповісти