Ральф Руйнівник 2: Інтернетрі / Ralph Breaks the Internet (2018) 1080p Ukr/Eng | Sub Eng

Нові коментарі

Нова тема   Відповісти
Автор Повідомлення
staf777 
Відео Гуртом - підтримка та поширення
Відео Гуртом - підтримка та поширення


З нами з: 16.11.16
Востаннє: 27.11.20
Повідомлень: 4527

2019-02-15 09:32  
Ральф Руйнівник 2: Інтернетрі / Ralph Breaks the Internet (2018) 1080p Ukr/Eng | Sub Eng

Ральф Руйнівник 2: Інтернетрі / Ralph Breaks the Internet (2018) 1080p Ukr/Eng | Sub Eng

Альтернативні постери:







Жанр: комедія, мультфільм, пригодницький, сімейний, фентезі
Країна: США



Кінокомпанія: Walt Disney Animation Studios, Walt Disney Pictures
Режисер: Філ Джонстон, Річ Мур
Актори: Джон К. Рейлі, Сара Сілверман, Галь Гадот, Тараджі П. Хенсон, Джек МакБрайер, Джейн Лінч, Алан Т'юдік, Альфред Моліна, Ед О’Ніл

Сюжет:
Творці «Крижаного Серця» і «Зоотрополіса» запрошують у пригоду нових часів! На безмежних просторах інтернету є фан на всі смаки: відомі програми, секретні чати, культові меми та герої, кумедне відео та ігри. Здоровань Ральф з такою силою поринає у віртуальний світ, що мережа починає глючити…


Тривалість: 01:53:25
Якість: 1080p

Відео:
кодек:
розмір кадру: 1920x804
бітрейт: 12,8 Мб/с

Аудіо # 1:
мова: українська
переклад: професійний дубльований
кодек: 5.1
бітрейт: 1509 кб/с

Аудіо # 2:
мова: українська
переклад: професійний дубльований
кодек: 5.1
бітрейт: 640 кб/с

Аудіо # 3:
мова: англійська
переклад: оригінал
кодек: 5.1
бітрейт: 1509 кб/с

Субтитри # 1-2: [Full+SDH]
мова: англійська
тип: програмні (м'які)
формат: *.srt
Info
Код:

General
Unique ID                   : 322232238985062827708482647875391156233 (0xF26BABFBCB5DDFE445112B9DC1B97009)
Complete name               : S:\» HD українською » Мультфільми в HD\Ralph Breaks the Internet (2018) 1080p [Ukr, Eng, sub Eng][Hurtom].
Format                      :
Format version              : Version 4
File size                   : 12.9 GiB
Duration                    : 1 h 52 min
Overall bit rate            : 16.5 Mb/s
Movie name                  : Ralph Breaks the Internet (2018) 1080p [Ukr, Eng, sub Eng][Hurtom]
Encoded date                : UTC 2019-03-09 10:54:32
Writing application         : v30.1.0 ('Forever And More') 64-bit
Writing library             : libebml v1.3.6 + v1.4.9
Cover                       : Yes
Attachments                 : cover.jpg

Video
ID                          : 1
Format                      : AVC
Format/Info                 : Advanced Video Codec
Format profile              : [email protected]
Format settings             : CABAC / 5 Ref Frames
Format settings, CABAC      : Yes
Format settings, ReFrames   : 5 frames
Codec ID                    : V_MPEG4/ISO/AVC
Duration                    : 1 h 52 min
Bit rate                    : 12.8 Mb/s
Width                       : 1 920 pixels
Height                      : 804 pixels
Display aspect ratio        : 2.40:1
Frame rate mode             : Constant
Frame rate                  : 23.976 (24000/1001) FPS
Color space                 : YUV
Chroma subsampling          : 4:2:0
Bit depth                   : 8 bits
Scan type                   : Progressive
Bits/(Pixel*Frame)          : 0.346
Stream size                 : 10.1 GiB (78%)
Title                       : HDC
Writing library             : core 148 r2665kMod a01e339
Encoding settings           : cabac=1 / ref=5 / deblock=1:-1:-1 / analyse=0x3:0x133 / me=umh / subme=11 / psy=1 / fade_compensate=0.00 / psy_rd=0.70:0.00 / mixed_ref=1 / me_range=48 / chroma_me=1 / trellis=2 / 8x8dct=1 / cqm=0 / deadzone=21,11 / fast_pskip=0 / chroma_qp_offset=-2 / threads=24 / lookahead_threads=4 / sliced_threads=0 / nr=0 / decimate=0 / interlaced=0 / bluray_compat=0 / constrained_intra=0 / fgo=0 / bframes=8 / b_pyramid=2 / b_adapt=2 / b_bias=0 / direct=3 / weightb=1 / open_gop=0 / weightp=2 / keyint=240 / keyint_min=24 / scenecut=40 / intra_refresh=0 / rc=2pass / mbtree=0 / bitrate=12800 / ratetol=1.0 / qcomp=0.70 / qpmin=0 / qpmax=69 / qpstep=4 / cplxblur=20.0 / qblur=0.5 / ip_ratio=1.10 / pb_ratio=1.20 / aq=3:1.10
Language                    : English
Default                     : Yes
Forced                      : No

Audio #1
ID                          : 2
Format                      :
Format/Info                 : Digital Theater Systems
Codec ID                    : A_DTS
Duration                    : 1 h 52 min
Bit rate mode               : Constant
Bit rate                    : 1 509 kb/s
Channel(s)                  : 6 channels
Channel layout              : C L R Ls Rs LFE
Sampling rate               : 48.0 kHz
Frame rate                  : 93.750 FPS (512 SPF)
Bit depth                   : 24 bits
Compression mode            : Lossy
Stream size                 : 1.19 GiB (9%)
Language                    : Ukrainian
Default                     : Yes
Forced                      : Yes

Audio #2
ID                          : 3
Format                      : AC-3
Format/Info                 : Audio Coding 3
Commercial name             : Dolby Digital
Codec ID                    : A_AC3
Duration                    : 1 h 52 min
Bit rate mode               : Constant
Bit rate                    : 640 kb/s
Channel(s)                  : 6 channels
Channel layout              : L R C LFE Ls Rs
Sampling rate               : 48.0 kHz
Frame rate                  : 31.250 FPS (1536 SPF)
Bit depth                   : 16 bits
Compression mode            : Lossy
Stream size                 : 515 MiB (4%)
Language                    : Ukrainian
Service kind                : Complete Main
Default                     : No
Forced                      : No

Audio #3
ID                          : 4
Format                      :
Format/Info                 : Digital Theater Systems
Codec ID                    : A_DTS
Duration                    : 1 h 52 min
Bit rate mode               : Constant
Bit rate                    : 1 509 kb/s
Channel(s)                  : 6 channels
Channel layout              : C L R Ls Rs LFE
Sampling rate               : 48.0 kHz
Frame rate                  : 93.750 FPS (512 SPF)
Bit depth                   : 24 bits
Compression mode            : Lossy
Stream size                 : 1.19 GiB (9%)
Title                       : Original
Language                    : English
Default                     : No
Forced                      : No

Text #1
ID                          : 5
Format                      : UTF-8
Codec ID                    : S_TEXT/UTF8
Codec ID/Info               : UTF-8 Plain Text
Duration                    : 1 h 51 min
Bit rate                    : 77 b/s
Count of elements           : 1886
Stream size                 : 63.1 KiB (0%)
Title                       : Full
Language                    : English
Default                     : No
Forced                      : No

Text #2
ID                          : 6
Format                      : UTF-8
Codec ID                    : S_TEXT/UTF8
Codec ID/Info               : UTF-8 Plain Text
Duration                    : 1 h 51 min
Bit rate                    : 90 b/s
Count of elements           : 2473
Stream size                 : 73.8 KiB (0%)
Title                       : SDH
Language                    : English
Default                     : No
Forced                      : No

Menu
00:00:00.000                : en:00:00:00.000
00:04:09.666                : en:00:04:09.666
00:11:07.417                : en:00:11:07.417
00:17:28.923                : en:00:17:28.923
00:23:43.881                : en:00:23:43.881
00:27:54.589                : en:00:27:54.589
00:34:18.807                : en:00:34:18.807
00:41:39.956                : en:00:41:39.956
00:51:27.709                : en:00:51:27.709
00:58:04.606                : en:00:58:04.606
01:01:50.957                : en:01:01:50.957
01:06:17.306                : en:01:06:17.306
01:12:31.806                : en:01:12:31.806
01:19:10.120                : en:01:19:10.120
01:27:24.030                : en:01:27:24.030
01:38:26.775                : en:01:38:26.775





Подяка пану Hanway за синхронізацію звуку.
Джерело:
Особиста оцінка: 0 - не дивився


 Трекер:    Зареєстрований   

Завантажити / скачати мультфільм українською



відео для новачків



 Зареєстрований:   2019-03-09 13:42
 Розмір:   12.94 GB 
 Оцінка мультфільму:   9.3/10 (Голосів: 52)
   
staf777 
Відео Гуртом - підтримка та поширення
Відео Гуртом - підтримка та поширення


З нами з: 16.11.16
Востаннє: 27.11.20
Повідомлень: 4527

2019-02-17 22:17  
Оновив до 1080p 
vovang6 
Поважний учасник


З нами з: 27.08.12
Востаннє: 27.11.20
Повідомлень: 223

2019-02-18 07:31  
Ходив в кiнотеатр на цей мульт з дiтьми, всi залишились задоволенними. Звичайний посереднiй мульт, без хапання зiрок з неба.
staf777 
Відео Гуртом - підтримка та поширення
Відео Гуртом - підтримка та поширення


З нами з: 16.11.16
Востаннє: 27.11.20
Повідомлень: 4527

2019-03-09 14:10  
Замінив доріжку на 5.1 @ 1509 kbps
Nexus28 
Новенький


З нами з: 28.08.10
Востаннє: 27.09.20
Повідомлень: 11

2019-03-10 15:37  
Картинка зависає в режимі оригіналу, з українським перекладом йде нормально.
Ваш часовий пояс: GMT + 2 Години

Нова тема   Відповісти