Ліга Європи 2018/19 | Шахтар Донецьк - Айнтрахт Франкфурт |1-й матч 1/16 (14.02.2019) -AVC

Нові коментарі

Нова тема   Відповісти
Останній раз роздавалося lokk234 (2020-01-07)
Автор Повідомлення
lokk234 
Новенький


З нами з: 05.03.14
Востаннє: 26.10.20
Повідомлень: 24

2019-02-15 01:53  
Ліга Європи 2018/19 | Шахтар Донецьк - Айнтрахт Франкфурт |1-й матч 1/16 (14.02.2019) -AVC

Ліга Європи 2018/19 | Шахтар Донецьк - Айнтрахт Франкфурт |1-й матч 1/16 (14.02.2019) -AVC


Телеканал: Футбол 2
Опис:
До вашої уваги 1-й матч 1/16 фіналу ЛЄ 2018/2019. між донецьким Шахтарем та німецьким Айнтрахтом.


Тривалість: 01:50:07
Якість:
Відео:
кодек: MPEG-2
розмір кадру: 1024 х 576
бітрейт: 1620 кб/с

Аудіо:
мова: українська
коментатор: Віктор Вацко
кодек: 2.0
бітрейт: 224 кб/с
Скріншоти




Info:
General
ID : 1 (0x1)
Complete name : C:\Users\Admin\Documents\UEFA Europa League - intermediate stage 1st leg. Shakhtar Donetsk - Eintracht Frankfurt\1 half.ts
Format : MPEG-TS
File size : 778 MiB
Duration : 110mn 07s
Overall bit rate : 1 942 Kbps

Video
ID : 256 (0x100)
Menu ID : 1 (0x1)
Format : AVC
Format/Info : Advanced Video Codec
Format profile : [email protected]
Format settings, CABAC : Yes
Format settings, ReFrames : 1 frame
Codec ID : 27
Duration : 110 mn 07s
Bit rate : 1 620 Kbps
Width : 1024 pixels
Height : 576 pixels
Display aspect ratio : 16:9
Frame rate : 25.000 fps
Standard : PAL
Color space : YUV
Chroma subsampling : 4:2:0
Bit depth : 8 bits
Scan type : Progressive
Bits/(Pixel*Frame) : 0.156
Stream size : 649 MiB (83%)

Audio
ID : 257 (0x101)
Menu ID : 1 (0x1)
Format :
Format/Info : Advanced Audio Codec
Format version : Version 4
Format profile : LC
Muxing mode : ADTS
Codec ID : 15
Duration : 110 mn 07s
Bit rate mode : Constant
Bit rate : 224 Kbps
Channel(s) : 2 channels
Channel positions : Front: L R
Sampling rate : 44.1 KHz
Compression mode : Lossy
Delay relative to video : -17ms
Stream size : 89.5 MiB (12%)
Language : Ukrainian

Menu
ID : 4096 (0x1000)
Menu ID : 1 (0x1)
Duration : 110 mn 07s
List : 256 (0x100) (AVC) / 257 (0x101) (, Ukrainian)
Language : / Ukrainian
Service name : Service01
Service provider : FFmpeg
Service type : digital television

Джерело:
Особиста оцінка: 9 - рекомендую поціновувачам українського футболу.

P. S. Є 10-секундний глюк на 64-й хвилині трансляції


Золотий реліз (завантажене не впливає на рейтинг)
 Трекер:    Зареєстрований   

Завантажити / скачати торрент



відео для новачків



 Зареєстрований:   2019-02-15 01:53
 Розмір:   1.49 GB 
 Оцінка:   7.5/10 (Голосів: 4)
   
munipet 
VIP


З нами з: 14.04.11
Востаннє: 27.10.20
Повідомлень: 318

2019-02-15 04:02  
Якщо це донецьк то пішли вони на..
staf777 
Відео Гуртом - підтримка та поширення
Відео Гуртом - підтримка та поширення


З нами з: 16.11.16
Востаннє: 27.10.20
Повідомлень: 4231

2019-02-15 11:15  
Чекаємо на матч відповідь
lokk234 
Новенький


З нами з: 05.03.14
Востаннє: 26.10.20
Повідомлень: 24

2019-02-15 14:48  
munipet
ок, я передам

midnight_man 
Свій


З нами з: 13.10.09
Востаннє: 27.10.20
Повідомлень: 128

2019-02-16 08:50  
munipet
це УКРАЇНА в першу чергу і грають вони на користь України, а не ОРДЛО, тим самим підкреслюючи, що Донецьк - це Україна, а не лунандонія з рашляндією.

Ваш часовий пояс: GMT + 2 Години

Нова тема   Відповісти