Годзилла / Godzilla (1998) AVC Ukr/Eng | Sub Eng

Нові коментарі

Нова тема   Відповісти
Автор Повідомлення
staf777 
Відео Гуртом - підтримка та поширення
Відео Гуртом - підтримка та поширення


З нами з: 16.11.16
Востаннє: 06.12.19
Повідомлень: 3038

2019-02-14 12:19  
Годзилла / Godzilla (1998) AVC Ukr/Eng | Sub Eng

Годзилла / Godzilla (1998) AVC Ukr/Eng | Sub Eng
Українські постери:







Жанр: бойовик, фантастика, трилер
Країна: США, Японія



Кінокомпанія: Centropolis Film Productions
Режисер: Роланд Еммеріх (Roland Emmerich)
Актори: Меттью Бродерік (Matthew Broderick), Жан Рено (Jean Reno), Марія Пітілло (Maria Pitillo), Хенк Азарія (Hank Azaria), Кевін Данн (Kevin Dunn), Майкл Лернер (Michael Lerner) та інші.

Сюжет:
З тихоокеанських джунглів на Нью-Йорк насувається страшна катастрофа. На очах у приголомшених жителів руйнуються хмарочоси, перевертаються автобуси, йдуть під землю цілі квартали. Але це не ураган і не землетрус. Це — Годзилла, найжахливіше чудовисько в історії.

Для неї людська цивілізація — лише жалюгідний мурашник, будинки — сірникові коробки, вертольоти — настирливі бабки. Мегаполісу загрожує повне знищення. Армія, оснащена за останнім словом техніки, не в силах протистояти гігантській ящірці. Невеликій групі сміливців належить з'ясувати, навіщо Годзилла прийшла в Нью-Йорк. Можливо, тоді їм удасться врятувати місто.


Тривалість: 02:18:43
Якість: AVC [ріп з 1080p блурею, який було зроблено з 4K Remastered скану плівки]
Відео:
кодек:
розмір кадру: 1080x452
бітрейт: 2578 кб/с

Аудіо # 1:
мова: українська
переклад: багатоголосий закадровий | Так Треба Продакшн
кодек: 5.1
бітрейт: 448 кб/с

Аудіо # 2:
мова: англійська
переклад: оригінал
кодек: 5.1
бітрейт: 448 кб/с

Субтитри # 1-2:
мова: англійська
тип: програмні (м'які)
формат: *.
Info
General
Unique ID : 258216378919343685905932546932427807286 (0xC242AA66ACDF69929E90458805615A36)
Complete name : S:\» Відео » Українське озвучення » Фільми-AVC\Фантастика\Godzilla (1998) AVC 4K Remastered [UKR][ENG][Hurtom].
Format :
Format version : Version 4
File size : 3.37 GiB
Duration : 2 h 18 min
Overall bit rate : 3 474 kb/s
Movie name : Godzilla (1998) AVC| 4K Remastered | [UKR][ENG][Hurtom]
Encoded date : UTC 2019-02-14 09:42:52
Writing application : v30.1.0 ('Forever And More') 64-bit
Writing library : libebml v1.3.6 + v1.4.9 / Lavf58.20.100
Cover : Yes
Attachments : Cover.jpg

Video
ID : 1
Format : AVC
Format/Info : Advanced Video Codec
Format profile : [email protected]
Format settings : CABAC / 14 Ref Frames
Format settings, CABAC : Yes
Format settings, ReFrames : 14 frames
Codec ID : V_MPEG4/ISO/AVC
Duration : 2 h 18 min
Bit rate : 2 578 kb/s
Width : 1 080 pixels
Height : 452 pixels
Display aspect ratio : 2.40:1
Frame rate mode : Constant
Frame rate : 23.976 (24000/1001) FPS
Color space : YUV
Chroma subsampling : 4:2:0
Bit depth : 8 bits
Scan type : Progressive
Bits/(Pixel*Frame) : 0.220
Stream size : 2.50 GiB (74%)
Title : MPEG-4, 1080x452, 23.976 fps ~2578 kbps
Writing library : core 157 r2935 545de2f
Encoding settings : cabac=1 / ref=14 / deblock=1:-3:-2 / analyse=0x3:0x133 / me=umh / subme=11 / psy=1 / psy_rd=1.00:0.15 / mixed_ref=1 / me_range=56 / chroma_me=1 / trellis=2 / 8x8dct=1 / cqm=0 / deadzone=21,11 / fast_pskip=0 / chroma_qp_offset=-3 / threads=6 / lookahead_threads=1 / sliced_threads=0 / nr=0 / decimate=0 / interlaced=0 / bluray_compat=0 / constrained_intra=0 / bframes=16 / b_pyramid=2 / b_adapt=2 / b_bias=0 / direct=3 / weightb=1 / open_gop=0 / weightp=2 / keyint=240 / keyint_min=24 / scenecut=40 / intra_refresh=0 / rc_lookahead=80 / rc=2pass / mbtree=0 / bitrate=2578 / ratetol=1.0 / qcomp=0.60 / qpmin=0 / qpmax=69 / qpstep=4 / cplxblur=20.0 / qblur=0.5 / vbv_maxrate=62500 / vbv_bufsize=78125 / nal_hrd=none / filler=0 / ip_ratio=1.40 / pb_ratio=1.30 / aq=1:1.00
Language : English
Default : Yes
Forced : No
Color range : Limited
Color primaries : BT.709
Transfer characteristics : BT.709
Matrix coefficients : BT.709

Audio #1
ID : 2
Format : AC-3
Format/Info : Audio Coding 3
Commercial name : Dolby Digital
Codec ID : A_AC3
Duration : 2 h 18 min
Bit rate mode : Constant
Bit rate : 448 kb/s
Channel(s) : 6 channels
Channel layout : L R C LFE Ls Rs
Sampling rate : 48.0 kHz
Frame rate : 31.250 FPS (1536 SPF)
Bit depth : 16 bits
Compression mode : Lossy
Delay relative to video : -21 ms
Stream size : 445 MiB (13%)
Language : Ukrainian
Service kind : Complete Main
Default : Yes
Forced : Yes

Audio #2
ID : 3
Format : AC-3
Format/Info : Audio Coding 3
Commercial name : Dolby Digital
Codec ID : A_AC3
Duration : 2 h 18 min
Bit rate mode : Constant
Bit rate : 448 kb/s
Channel(s) : 6 channels
Channel layout : L R C LFE Ls Rs
Sampling rate : 48.0 kHz
Frame rate : 31.250 FPS (1536 SPF)
Bit depth : 16 bits
Compression mode : Lossy
Delay relative to video : -21 ms
Stream size : 445 MiB (13%)
Title : 6 ch, 48 kHz ~448 kbps - Original
Language : English
Service kind : Complete Main
Default : No
Forced : No

Text #1
ID : 4
Format :
Codec ID : S_TEXT/
Codec ID/Info : Advanced Sub Station Alpha
Duration : 2 h 1 min
Bit rate : 72 b/s
Count of elements : 1042
Compression mode : Lossless
Stream size : 65.0 KiB (0%)
Language : English
Default : No
Forced : No

Text #2
ID : 5
Format :
Codec ID : S_TEXT/
Codec ID/Info : Advanced Sub Station Alpha
Duration : 2 h 12 min
Bit rate : 120 b/s
Count of elements : 1685
Compression mode : Lossless
Stream size : 117 KiB (0%)
Language : English
Default : No
Forced : No

Menu
00:00:00.000 : :00:00:00.000
00:07:48.426 : :00:07:48.426
00:17:25.586 : :00:17:25.461
00:25:28.318 : :00:25:28.235
00:36:53.920 : :00:36:53.837
00:41:48.214 : :00:41:48.214
00:48:19.730 : :00:48:19.730
01:01:35.942 : :01:01:35.942
01:11:06.095 : :01:11:06.095
01:21:38.685 : :01:21:38.685
01:30:26.296 : :01:30:26.212
01:39:14.157 : :01:39:14.157
01:50:24.159 : :01:50:24.159
01:52:28.700 : :01:52:28.659
02:00:36.813 : :02:00:36.771
02:05:56.883 : :02:05:56.883





Джерело: &
Особиста оцінка: 8 - мені сподобалося
Годзилла / Godzilla (1998) AVC Ukr/Eng | Sub Eng Годзилла / Godzilla (1998) AVC Ukr/Eng | Sub Eng


Срібний реліз (на рейтинг впливає 50% завантаженого)
 Трекер:    Зареєстрований   

Завантажити / скачати фільм українською



відео для новачків



 Зареєстрований:   2019-02-14 12:19
 Розмір:   3.37 GB 
 Оцінка фільму:   8.9/10 (Голосів: 15)
   
Інші релізи
   Годзилла / Godzilla (1998) Remux 1080p Ukr/Eng | Sub Eng kryk-v.ya.  2 / 0   39.74 GB   2018-09-14 20:33 
   Годзилла / Godzilla (1998) 1080p Ukr/Eng igor911  4 / 0   7.75 GB   2013-07-08 00:13 
   Годзилла / Godzilla (1998) Ukr/Eng robotron005  6 / 0   2.9 GB   2009-11-26 22:53 
splinsei 
Свій


З нами з: 19.01.16
Востаннє: 02.12.19
Повідомлень: 52

2019-02-14 21:24  
Хоч у дитинстві фільм і подобався, проте на разі я б радив до перегляду японський оригінал.
EvGaS 
Відео Гуртом - субтитрування
Відео Гуртом - субтитрування


З нами з: 27.02.12
Востаннє: 31.07.19
Повідомлень: 5674

2019-02-15 04:27  
staf777 написано:
4K Remastered

staf777 написано:
розмір кадру: 1080x452

)))) 4К явно зайве, можна дописувати просто ремастеринг, бо щокожні 5 років буде що нове до цього слова дописати

Серед «західних» версій точно найкраща: бо в ній є чорнобильські хробачки. Wink (1)

Ваш часовий пояс: GMT + 2 Години

Нова тема   Відповісти