Ліга Чемпіонів 2018/19 | Аякс - Реал Мадрид |1-й матч 1/8 (13.02.2019) -AVC

Нові коментарі

Нова тема   Відповісти
Останній раз роздавалося drtato (2019-09-19)
Автор Повідомлення
lokk234 
Новенький


З нами з: 05.03.14
Востаннє: 30.05.19
Повідомлень: 24

2019-02-14 01:55  
Ліга Чемпіонів 2018/19 | Аякс - Реал Мадрид |1-й матч 1/8 (13.02.2019) -AVC

Ліга Чемпіонів 2018/19 | Аякс - Реал Мадрид |1-й матч 1/8 (13.02.2019) -AVC


Телеканал: Футбол 2
Опис:
До вашої уваги 1-й матч 1/8 фіналу ЛЧ 2018/2019. Амстердамський Аякс приймає на своєму полі Реал.


Тривалість: 01:49:19
Якість:
Відео:
кодек: MPEG-2
розмір кадру: 1024 х 576
бітрейт: 1620 кб/с

Аудіо:
мова: українська
коментатор: Роман Тимощук
кодек: 2.0
бітрейт: 224 кб/с
Скріншоти




Info:
General
ID : 1 (0x1)
Complete name : C:\Users\Admin\Documents\UEFA Champions League - last 16 1st leg. Ajax Amsterdam - Real Madrid\1 half.ts
Format : MPEG-TS
File size : 792 MiB
Duration : 109 mn 19s
Overall bit rate : 1 935 Kbps

Video
ID : 256 (0x100)
Menu ID : 1 (0x1)
Format : AVC
Format/Info : Advanced Video Codec
Format profile : [email protected]
Format settings, CABAC : Yes
Format settings, ReFrames : 1 frame
Codec ID : 27
Duration : 109 mn 19s
Bit rate : 1 620 Kbps
Width : 1024 pixels
Height : 576 pixels
Display aspect ratio : 16:9
Frame rate : 25.000 fps
Standard : PAL
Color space : YUV
Chroma subsampling : 4:2:0
Bit depth : 8 bits
Scan type : Progressive
Bits/(Pixel*Frame) : 0.156
Stream size : 661 MiB (83%)

Audio
ID : 257 (0x101)
Menu ID : 1 (0x1)
Format :
Format/Info : Advanced Audio Codec
Format version : Version 4
Format profile : LC
Muxing mode : ADTS
Codec ID : 15
Duration : 109 mn 19s
Bit rate mode : Constant
Bit rate : 224 Kbps
Channel(s) : 2 channels
Channel positions : Front: L R
Sampling rate : 44.1 KHz
Compression mode : Lossy
Delay relative to video : -17ms
Stream size : 91.4 MiB (12%)
Language : Ukrainian

Menu
ID : 4096 (0x1000)
Menu ID : 1 (0x1)
Duration : 109 mn 19s
List : 256 (0x100) (AVC) / 257 (0x101) (, Ukrainian)
Language : / Ukrainian
Service name : Service01
Service provider : FFmpeg
Service type : digital television

Джерело:
Особиста оцінка: 10 - матч топ рівня, з драматичною розвязкою


Бронзовий реліз (на рейтинг впливає 75% завантаженого)
 Трекер:    Зареєстрований   

Завантажити / скачати торрент



відео для новачків



 Зареєстрований:   2019-02-14 01:55
 Розмір:   1.48 GB 
 Оцінка:   10/10 (Голосів: 4)
   
drtato 
Поважний учасник


З нами з: 28.10.10
Востаннє: 19.09.19
Повідомлень: 153

2019-02-14 12:31  
Дякую пане lokk234 за реліз. З задоволенням подивлюсь. Добре що рахунок не знав.
lokk234 
Новенький


З нами з: 05.03.14
Востаннє: 30.05.19
Повідомлень: 24

2019-02-14 12:39  
drtato
дивитись є на що)

drtato 
Поважний учасник


З нами з: 28.10.10
Востаннє: 19.09.19
Повідомлень: 153

2019-02-15 11:46  
Який неймовірний матч! Яке неймовірне видовище! Феєрична гра! Ще раз дякую пане lokk234.
Ваш часовий пояс: GMT + 2 Години

Нова тема   Відповісти