Касл-Рок (Сезон 1, серії 1-8) / Castle Rock (Season 1, episodes 1-8) (2018) 720p

Нові коментарі

Нова тема   Відповісти
Автор Повідомлення
dragheart 
Свій


З нами з: 27.01.16
Востаннє: 16.07.19
Повідомлень: 60

2019-02-13 23:18  
Касл-Рок (Сезон 1, серії 1-8) / Castle Rock (Season 1, episodes 1-8) (2018) 720p

Касл-Рок (Сезон 1, серії 1-8) / Castle Rock (Season 1, episodes 1-8) (2018) 720p


Жанр: драма, трилер, фентезі, жахи
Країна: США



Кінокомпанія: Bad Robot, Warner Bros. Pictures
Режисер: Майкл Аппендаль, Деніел Еттіес, Кевін Гукс
Актори: Андре Голленд, Мелані Лінскі, Білл Скарсгард, Джейн Леві, Сіссі Спейсек, Каліл Гарріс, Скотт Гленн, Адам Ротенберг, Ноель Фішер, Енн К'юсак

Сюжет:
Серіал в жанрі психологічного трилера та жахів, дія якого відбувається в мультивсесвіті Стівена Кінга. У «Касл-Рок» зійдуться психологічна і міфологічна складова найбільш популярних творів Кінга: це буде епічна сага про боротьбу темряви і світла на кількох квадратних кілометрах лісів штату Мен. Невелике провінційне містечко Касл-Рок - місце туманне і таємниче. Тут відбуваються загадкові, містичні, а часом і жахливі речі та всі вони пов'язані з головним героєм Генрі Дівером...


Тривалість: 1 серія: 00:50:00 (цілком серій: 10)
Перелік серій
e01. Severance
e02. Habeas Corpus
e03. Local Color
e04. The Box
e05. Harvest
e06. Filter
e07. The Queen
e08. Past Perfect
e09. Henry Deaver
e10. Romans
Якість:
Відео:
кодек:
розмір кадру: 1280 х 720
бітрейт: 2342 кб/с

Аудіо:
мова: українська
переклад: багатоголосий закадровий | DubLiCat
кодек: 2.0
бітрейт: 224 кб/с



Шукайте нашу сторінку на FaceBook: DubLcat


Посилання на ТРЕЙЛЕР
Info
General
Unique ID : 248015374744498647506134910377122103432 (0xBA960610798B19D4E267F30964E88088)
Complete name : F:\Проект\Готовые проекты\CastleRock.S01\Castle.Rock.S01E01..Ukr.
Format :
Format version : Version 4 / Version 2
File size : 1 023 MiB
Duration : 54mn 36s
Overall bit rate : 2 619 Kbps
Encoded date : UTC 2018-11-19 19:34:37
Writing application : v23.0.0 ('The Bride Said No') 64-bit
Writing library : libebml v1.3.6 + v1.4.9
DURATION : 00:54:36.160000000
NUMBER_OF_FRAMES : 102380
NUMBER_OF_BYTES : 91732480
_STATISTICS_WRITING_APP : v23.0.0 ('The Bride Said No') 64-bit
_STATISTICS_WRITING_DATE_UTC : 2018-11-19 19:34:37
_STATISTICS_TAGS : BPS DURATION NUMBER_OF_FRAMES NUMBER_OF_BYTES

Video
ID : 1
Format : AVC
Format/Info : Advanced Video Codec
Format profile : [email protected]
Format settings, CABAC : Yes
Format settings, ReFrames : 1 frame
Codec ID : V_MPEG4/ISO/AVC
Duration : 54mn 36s
Bit rate : 2 342 Kbps
Nominal bit rate : 2 500 Kbps
Width : 1 280 pixels
Height : 720 pixels
Display aspect ratio : 16:9
Frame rate mode : Variable
Frame rate : 23.976 fps
Color space : YUV
Chroma subsampling : 4:2:0
Bit depth : 8 bits
Scan type : Progressive
Bits/(Pixel*Frame) : 0.106
Stream size : 915 MiB (89%)
Writing library : core 129
Encoding settings : cabac=1 / ref=1 / deblock=1:0:0 / analyse=0x1:0x131 / me=dia / subme=2 / psy=1 / psy_rd=1.00:0.00 / mixed_ref=0 / me_range=16 / chroma_me=1 / trellis=0 / 8x8dct=0 / cqm=0 / deadzone=21,11 / fast_pskip=1 / chroma_qp_offset=0 / threads=4 / lookahead_threads=1 / sliced_threads=0 / nr=0 / decimate=1 / interlaced=0 / bluray_compat=0 / constrained_intra=0 / bframes=0 / weightp=2 / keyint=250 / keyint_min=25 / scenecut=40 / intra_refresh=0 / rc_lookahead=40 / rc=abr / mbtree=1 / bitrate=2500 / ratetol=1.0 / qcomp=0.60 / qpmin=10 / qpmax=51 / qpstep=4 / ip_ratio=1.41 / aq=1:1.00
Default : Yes
Forced : No

Audio
ID : 2
Format : AC-3
Format/Info : Audio Coding 3
Mode extension : CM (complete main)
Codec ID : A_AC3
Duration : 54mn 36s
Bit rate mode : Constant
Bit rate : 224 Kbps
Channel(s) : 2 channels
Channel positions : Front: L R
Sampling rate : 48.0 KHz
Bit depth : 16 bits
Compression mode : Lossy
Stream size : 87.5 MiB (9%)
Language : Ukrainian
Default : Yes
Forced : No
Скріншоти




Джерело:
Особиста оцінка: 10 - без зайвих вагань рекомендую всім!


Авторський реліз (завантажувати можна без реєстрації)
 Трекер:    Зареєстрований   

Завантажити / скачати серіал українською



відео для новачків



 Зареєстрований:   2019-06-04 20:21
 Розмір:   7.45 GB 
 Оцінка серіалу:   9.3/10 (Голосів: 16)
   
Don_Niccolo 
Новенький


З нами з: 09.12.09
Востаннє: 16.07.19
Повідомлень: 21

2019-02-15 14:38  
як цілком серій 5, якщо серіал має цілком серій 10 ?!
dragheart 
Свій


З нами з: 27.01.16
Востаннє: 16.07.19
Повідомлень: 60

2019-02-21 10:54  
Додано шостий епізод
serj132 
Новенький


З нами з: 07.01.17
Востаннє: 16.07.19
Повідомлень: 1

2019-04-12 23:43  
Хлопці, а коли будуть наступні 4 серії? Дуже чекаю.
dragheart 
Свій


З нами з: 27.01.16
Востаннє: 16.07.19
Повідомлень: 60

2019-04-13 08:50  
Ми обов'язково будемо робити наступні серії. Зараз в одного з моїх колег деякі складнощі але він обіцяє що усе зробить як найшвидше. Дочекайтесь))
dragheart 
Свій


З нами з: 27.01.16
Востаннє: 16.07.19
Повідомлень: 60

2019-04-14 21:37  
Додано 7-й епізод
Grey_Wolf 
Новенький


З нами з: 18.01.10
Востаннє: 15.07.19
Повідомлень: 3

2019-04-29 08:56  
навіщо кожного разу змінювати назву теки із файлами?
щоб неуважні люди вантажили ВСЕ по новому?
а через кілька серій бачили що в них кілька майже однакових тек із файлами?

dragheart 
Свій


З нами з: 27.01.16
Востаннє: 16.07.19
Повідомлень: 60

2019-04-29 17:00  
Grey_Wolf
Так, дякую за зауваження. З наступної серії назва теки не змінюватиметься.

maydanec 
Новенький


З нами з: 11.06.12
Востаннє: 14.07.19
Повідомлень: 4

2019-05-26 22:00  
Коли чекати на продовження?
dragheart 
Свій


З нами з: 27.01.16
Востаннє: 16.07.19
Повідомлень: 60

2019-05-28 16:54  
maydanec
Колега обіцяв, що зробить сою частину протягом тижня

dragheart 
Свій


З нами з: 27.01.16
Востаннє: 16.07.19
Повідомлень: 60

2019-06-04 20:24  
Додано 8-й епізод
Ваш часовий пояс: GMT + 2 Години

Нова тема   Відповісти