О 3:10 до Юми / 3:10 to Yuma (1957) Remux 1080p Ukr/Eng | Sub Eng

Нові коментарі

Нова тема   Відповісти
Останній раз роздавалося MakRA (2019-07-17)
Автор Повідомлення
MakRA 
VIP


З нами з: 11.11.18
Востаннє: 17.07.19
Повідомлень: 281

2019-02-13 18:19  
О 3:10 до Юми / 3:10 to Yuma (1957) Remux 1080p Ukr/Eng | Sub Eng



Жанр: вестерн, драма, трилер
Країна: США



Кінокомпанія: Columbia Pictures Corporation
Режисер: Делмер Дейвс [Delmer Daves]
Актори: Ґленн Форд [Glenn Ford], Ван Гефлін [Van Heflin], Філіція Фарр [Felicia Farr], Леора Дана [Leora Dana], Генрі Джонс [Henry Jones], Річард Джекел [Richard Jaeckel], Роберт Емгардт [Robert Emhardt], Шерідан Камрейт [Sheridan Comerate], Джордж Мітчелл [George Mitchell], Роберт Елленштейн [Robert Ellenstein].

Сюжет:
Після того, як відомого бандита Бена Вейда схопили в маленькому місті, його банда продовжує загрожувати місцевим жителям. Дрібний власник ранчо Ден Еванс погоджується таємно доставити Вейда в найближче місто із залізничною станцією, щоб чекати там поїзд у форт Юма. Як тільки вони зупиняються в готелі, стає очевидним, що їхня таємниця розкрита, і за ними починається полювання …


Тривалість: 01:32:21
Якість: Remux 1080p
Відео:
кодек:
розмір кадру: 1920 х 1080
бітрейт: 34.9 Mb/s

Аудіо # 1:
мова: українська
переклад: двоголосий закадровий [Новий канал]
кодек: 5.1
бітрейт: 384 kb/s
Про озвучення:

Ролі озвучили:Олесь Гімбаржевський і один жіночий голос.
Аудіо # 2:
мова: англійська
переклад: оригінал
кодек: -HD 5.1
бітрейт: 3 072 kb/s

Аудіо # 3:
мова: англійська
переклад: оригінал
кодек: 5.1
бітрейт: 384 kb/s

Субтитри# 1-2:[/b] (full, SDH)
мова: англійська
тип: пререндерні
формат: *.pgs
Info
General
Unique ID : 55173437742789777257516534698376489462 (0x29820480ABC12F3D47180D78EEE8E9F6)
Complete name : F:\Вестерни\3.10 to Yuma (1957) Remux 1080p UkrEng Sub Eng [Hurtom].
Format :
Format version : Version 4 / Version 2
File size : 25.0 GiB
Duration : 1 h 32 min
Overall bit rate mode : Variable
Overall bit rate : 38.8 Mb/s
Encoded date : UTC 2019-02-13 13:14:39
Writing application : v25.0.0 ('Prog Noir') 64-bit
Writing library : libebml v1.3.6 + v1.4.9

Video
ID : 1
Format : AVC
Format/Info : Advanced Video Codec
Format profile : [email protected]
Format settings, CABAC : Yes
Format settings, RefFrames : 4 frames
Codec ID : V_MPEG4/ISO/AVC
Duration : 1 h 32 min
Bit rate mode : Variable
Bit rate : 34.9 Mb/s
Maximum bit rate : 37.0 Mb/s
Width : 1 920 pixels
Height : 1 080 pixels
Display aspect ratio : 16:9
Frame rate mode : Constant
Frame rate : 23.976 (24000/1001) FPS
Color space : YUV
Chroma subsampling : 4:2:0
Bit depth : 8 bits
Scan type : Progressive
Bits/(Pixel*Frame) : 0.702
Stream size : 22.5 GiB (90%)
Title : О 3:10 до Юми / 3:10 to Yuma (1957) Remux 1080p Ukr/Eng | Sub Eng [Hurtom]
Language : Ukrainian
Default : Yes
Forced : Yes

Audio #1
ID : 2
Format : AC-3
Format/Info : Audio Coding 3
Format settings, Endianness : Big
Codec ID : A_AC3
Duration : 1 h 32 min
Bit rate mode : Constant
Bit rate : 384 kb/s
Channel(s) : 6 channels
Channel positions : Front: L C R, Side: L R, LFE
Sampling rate : 48.0 kHz
Frame rate : 31.250 FPS (1536 SPF)
Bit depth : 16 bits
Compression mode : Lossy
Stream size : 254 MiB (1%)
Title : DVO [Новий канал]
Language : Ukrainian
Service kind : Complete Main
Default : Yes
Forced : No

Audio #2
ID : 3
Format :
Format/Info : Digital Theater Systems
Format profile : MA / Core
Mode : 16
Format settings, Endianness : Big
Codec ID : A_DTS
Duration : 1 h 32 min
Bit rate mode : Variable / Constant
Bit rate : 3 072 kb/s / 1 509 kb/s
Channel(s) : 6 channels
Channel positions : Front: L C R, Side: L R, LFE
Sampling rate : 48.0 kHz
Frame rate : 93.750 FPS (512 SPF)
Bit depth : 24 bits
Compression mode : Lossless / Lossy
Stream size : 2.01 GiB (8%)
Title : Original
Language : English
Default : No
Forced : No

Audio #3
ID : 4
Format : AC-3
Format/Info : Audio Coding 3
Format settings, Endianness : Big
Codec ID : A_AC3
Duration : 1 h 32 min
Bit rate mode : Constant
Bit rate : 384 kb/s
Channel(s) : 6 channels
Channel positions : Front: L C R, Side: L R, LFE
Sampling rate : 48.0 kHz
Frame rate : 31.250 FPS (1536 SPF)
Bit depth : 16 bits
Compression mode : Lossy
Stream size : 254 MiB (1%)
Title : Original
Language : English
Service kind : Complete Main
Default : No
Forced : No

Text #1
ID : 5
Format : PGS
Muxing mode : zlib
Codec ID : S_HDMV/PGS
Codec ID/Info : Picture based subtitle format used on BDs/HD-DVDs
Duration : 1 h 32 min
Bit rate : 25.0 kb/s
Count of elements : 2178
Stream size : 16.4 MiB (0%)
Title : Eng (full)
Language : English
Default : No
Forced : No

Text #2
ID : 6
Format : PGS
Muxing mode : zlib
Codec ID : S_HDMV/PGS
Codec ID/Info : Picture based subtitle format used on BDs/HD-DVDs
Duration : 1 h 32 min
Bit rate : 26.7 kb/s
Count of elements : 2338
Stream size : 17.6 MiB (0%)
Title : Eng (SDH)
Language : English
Default : No
Forced : No
Скріншоти
Джерело: &
Подяка п. karvai0 за українську доріжку.
Особиста оцінка: 10 - без зайвих вагань рекомендую всім!


Золотий реліз (завантажене не впливає на рейтинг)
 Трекер:    Зареєстрований   

Завантажити / скачати фільм українською



відео для новачків



 Зареєстрований:   2019-02-13 18:19
 Розмір:   25.02 GB 
 Оцінка фільму:   10/10 (Голосів: 5)
   
Інші релізи
   О 3:10 до Юми / 3:10 to Yuma (1957) 720p Ukr/Eng | Sub Eng Mr Yuran  0 / 0   5.25 GB   2015-03-18 17:38 
   О 3:10 до Юми / 3:10 to Yuma (1957) Ukr/Eng | Sub Eng karvai0  3 / 1   1.69 GB   2013-05-31 12:19 
Ваш часовий пояс: GMT + 2 Години

Нова тема   Відповісти