Патріот [Розширена версія] / The Patriot [Extended Cut] (2000) AVC Ukr/Eng | Sub Eng

Нові коментарі

Нова тема   Відповісти
Автор Повідомлення
-Star-Lord- 
VIP


З нами з: 09.08.18
Востаннє: 16.02.19
Повідомлень: 596

2019-02-13 13:04  
Патріот [Розширена версія] / The Patriot [Extended Cut] (2000) AVC Ukr/Eng | Sub Eng

Патріот [Розширена версія] / The Patriot [Extended Cut] (2000) AVC Ukr/Eng | Sub Eng


Жанр: бойовик, драма, військовий
Країна: США, Німеччина
Кінокомпанія: Columbia Pictures Corporation | Centropolis Entertainment | Mutual Film Company | Global Entertainment Productions GmbH & Company Medien KG
Режисер: Роланд Еммеріх (Roland Emmerich)
Актори: Мел Ґібсон (Mel Gibson), Гіт Леджер (Heath Ledger), Джоелі Річардсон (Joely Richardson), Джейсон Айзекс (Jason Isaacs), Кріс Купер (Chris Cooper), Чекі Каріо (Tchéky Karyo), Рене Обержонуа (Rene Auberjonois), Ліза Бреннер (Lisa Brenner), Том Вілкінсон (Tom Wilkinson), Донал Балка (Donal Logue)

Сюжет:
Коли над країною спалахнуло смертоносне полум'я страшної війни за незалежність США, прославлений ветеран і батько семи дітей Бенджамін Мартін залишився збоку. Але холоднокровне вбивство його сина відразу змінює все його життя.

Спрага помсти перетворила військову науку на жорстоку бійню, а мирного плантатора - в безжалісного командира найнебезпечнішого загону повстанців.

Тривалість: 02:55:06
Якість: AVC
Відео:
кодек:
розмір кадру: 976 x 408
бітрейт: 1 796 кб/с

Аудіо # 1:
мова: українська
переклад: багатоголосий закадровий
кодек: AC-3 5.1
бітрейт: 448 кб/с

Аудіо # 2:
мова: англійська
переклад: оригінал
кодек: AC-3 5.1
бітрейт: 448 кб/с

Субтитри # 1:
мова: українська (Forced, на розширені місця),
тип: програмні (м'які)
формат: *.srt

Субтитри # 2:
мова: англійська (Full),
тип: програмні (м'які)
формат: *.


Info
Код:
General
Unique ID                                : 231613691482528198164853751137054730180 (0xAE3F2CA53119A4BEA8BC66B9CE8BA7C4)
Complete name                            : F:\Video\The Patriot (2000) [Extended] AVC [UKR_ENG].
Format                                   :
Format version                           : Version 4 / Version 2
File size                                : 3.29 GiB
Duration                                 : 2 h 55 min
Overall bit rate                         : 2 693 kb/s
Movie name                               : The Patriot [Extended Cut] (2000)
Encoded date                             : UTC 2019-02-13 11:00:05
Writing application                      : v20.0.0 ('I Am The Sun') 64-bit
Writing library                          : libebml v1.3.5 + v1.4.8
Cover                                    : Yes
Attachments                              : Cover.jpg

Video
ID                                       : 1
Format                                   : AVC
Format/Info                              : Advanced Video Codec
Format profile                           : [email protected]
Format settings                          : CABAC / 10 Ref Frames
Format settings, CABAC                   : Yes
Format settings, ReFrames                : 10 frames
Codec ID                                 : V_MPEG4/ISO/AVC
Duration                                 : 2 h 55 min
Bit rate                                 : 1 796 kb/s
Width                                    : 976 pixels
Height                                   : 408 pixels
Display aspect ratio                     : 2.40:1
Frame rate mode                          : Constant
Frame rate                               : 23.976 (24000/1001) FPS
Color space                              : YUV
Chroma subsampling                       : 4:2:0
Bit depth                                : 8 bits
Scan type                                : Progressive
Bits/(Pixel*Frame)                       : 0.188
Stream size                              : 2.20 GiB (67%)
Title                                    : The Patriot [Extended Cut] (2000)
Writing library                          : core 130 r2273 b3065e6
Encoding settings                        : cabac=1 / ref=10 / deblock=1:-1:-1 / analyse=0x3:0x113 / me=umh / subme=9 / psy=1 / psy_rd=1.02:0.20 / mixed_ref=1 / me_range=24 / chroma_me=1 / trellis=2 / 8x8dct=1 / cqm=0 / deadzone=21,11 / fast_pskip=1 / chroma_qp_offset=-3 / threads=6 / lookahead_threads=1 / sliced_threads=0 / nr=0 / decimate=1 / interlaced=0 / bluray_compat=0 / constrained_intra=0 / bframes=10 / b_pyramid=2 / b_adapt=2 / b_bias=0 / direct=3 / weightb=1 / open_gop=0 / weightp=2 / keyint=250 / keyint_min=23 / scenecut=40 / intra_refresh=0 / rc_lookahead=60 / rc=2pass / mbtree=1 / bitrate=1796 / ratetol=1.0 / qcomp=0.60 / qpmin=0 / qpmax=69 / qpstep=4 / cplxblur=20.0 / qblur=0.5 / ip_ratio=1.40 / aq=1:0.90
Default                                  : Yes
Forced                                   : No

Audio #1
ID                                       : 2
Format                                   : AC-3
Format/Info                              : Audio Coding 3
Codec ID                                 : A_AC3
Duration                                 : 2 h 55 min
Bit rate mode                            : Constant
Bit rate                                 : 448 kb/s
Channel(s)                               : 6 channels
Channel positions                        : Front: L C R, Side: L R, LFE
Sampling rate                            : 48.0 kHz
Frame rate                               : 31.250 FPS (1536 SPF)
Bit depth                                : 16 bits
Compression mode                         : Lossy
Stream size                              : 561 MiB (17%)
Title                                    : БЗ - Inter
Language                                 : Ukrainian
Service kind                             : Complete Main
Default                                  : Yes
Forced                                   : No

Audio #2
ID                                       : 3
Format                                   : AC-3
Format/Info                              : Audio Coding 3
Codec ID                                 : A_AC3
Duration                                 : 2 h 55 min
Bit rate mode                            : Constant
Bit rate                                 : 448 kb/s
Channel(s)                               : 6 channels
Channel positions                        : Front: L C R, Side: L R, LFE
Sampling rate                            : 48.0 kHz
Frame rate                               : 31.250 FPS (1536 SPF)
Bit depth                                : 16 bits
Compression mode                         : Lossy
Stream size                              : 561 MiB (17%)
Title                                    : Original
Language                                 : English
Service kind                             : Complete Main
Default                                  : No
Forced                                   : No

Text #1
ID                                       : 4
Format                                   : UTF-8
Codec ID                                 : S_TEXT/UTF8
Codec ID/Info                            : UTF-8 Plain Text
Duration                                 : 2 h 19 min
Bit rate                                 : 4 b/s
Count of elements                        : 79
Stream size                              : 4.85 KiB (0%)
Title                                    : Forced
Language                                 : Ukrainian
Default                                  : Yes
Forced                                   : Yes

Text #2
ID                                       : 5
Format                                   :
Codec ID                                 : S_TEXT/
Codec ID/Info                            : Advanced Sub Station Alpha
Duration                                 : 2 h 46 min
Bit rate                                 : 69 b/s
Count of elements                        : 1399
Compression mode                         : Lossless
Stream size                              : 84.3 KiB (0%)
Title                                    : Full
Language                                 : English
Default                                  : No
Forced                                   : No

Menu
00:00:00.000                             : en:Chapter 01
00:13:15.753                             : en:Chapter 02
00:26:37.053                             : en:Chapter 03
00:34:58.429                             : en:Chapter 04
00:41:35.034                             : en:Chapter 05
00:56:25.715                             : en:Chapter 06
01:06:12.927                             : en:Chapter 07
01:20:24.361                             : en:Chapter 08
01:28:18.001                             : en:Chapter 09
01:36:39.168                             : en:Chapter 10
01:46:41.520                             : en:Chapter 11
02:00:11.996                             : en:Chapter 12
02:07:09.288                             : en:Chapter 13
02:14:08.331                             : en:Chapter 14
02:31:26.285                             : en:Chapter 15
02:38:55.984                             : en:Chapter 16
Світлини





Джерело: &
Особиста оцінка: 0 - не дивився


Срібний реліз (на рейтинг впливає 50% завантаженого)
 Трекер:    Зареєстрований   

Завантажити / скачати фільм українською



відео для новачків



 Зареєстрований:   2019-02-13 13:04
 Розмір:   3.29 GB 
 Оцінка фільму:   9.5/10 (Голосів: 6)
   
splinsei 
Частий відвідувач


З нами з: 19.01.16
Востаннє: 14.02.19
Повідомлень: 26

2019-02-13 13:08  
Хоч у фільмі і забагато мелодрами, загалом приємно дивитися на гру Гібсона і Леджера та картинку, що непогане передає дух тих часів.
Ваш часовий пояс: GMT + 2 Години

Нова тема   Відповісти