Ми не янголи / We're No Angels (1989) 720p Ukr/Eng

Нові коментарі

Нова тема   Відповісти
Автор Повідомлення
Arch Enemy 
VIP


З нами з: 30.08.12
Востаннє: 16.07.19
Повідомлень: 1674

2019-02-13 13:47  
Ми не янголи / We're No Angels (1989)

Ми не янголи / We're No Angels (1989) 720p Ukr/Eng

Жанр: кримінальний, комедія
Країна: США



Кінокомпанія: Paramount Pictures
Режисер: Ніл Джордан
Актори: Роберт Де Ніро, Шон Пенн, Демі Мур, Хойт Екстон, Бруно Кербі, Рей МакЕнеллі, Джеймс Руссо, Воллес Шоун, ДжонСі Райлі, Джей Бразо та інші.

Сюжет:
Щось явно не так з цими священиками... Усе в них начебто як треба: і сутани, і чотки, і білі комірці. Але при цьому, аж надто пики у них підозрілі. Схоже, що ці «святі отці» не переймалися відвідуванням семінарії.
І правильно, тому що ніякі вони не священики, а двоє в'язнів-утікачів! Приятелям не терпиться забратися з Америки, де на них влаштували грандіозне полювання, на простори гостинної Канади.
Їхня єдина надія - це ряси священнослужителів, які так доречно підвернулися. Тільки от чи зможе раптове отримання «духовного сану» перевиховати поганців?


Тривалість: 01:46:19
Якість: 720p

Відео:
кодек:
розмір кадру: 1280х534
бітрейт: 3914 кбіт/сек.
контейнер:

Аудіо # 1:
мова: українська
озвучення: багатоголосе закадрове
кодек: 5.1
бітрейт: 448 кбіт/сек.

Аудіо # 2:
мова: англійська
озвучення: оригінал
кодек: 5.1
бітрейт: 448 кбіт/сек.

Субтитри:
мова: англійська (SDH)
тип: програмні (м'які)
формат: SRT
Info
General
Unique ID : 13323164998427794309849520493615694602 (0xA05F2C004608F96E204B23BD654C30A)
Complete name : E:\Films\We're No Angels (1989) 720p.
Format :
Format version : Version 4 / Version 2
File size : 3.57 GiB
Duration : 1 h 46 min
Overall bit rate : 4 811 kb/s
Movie name : We're No Angels [1989]
Encoded date : UTC 2019-02-20 18:50:10
Writing application : v26.0.0 ('In The Game') 64-bit
Writing library : libebml v1.3.6 + v1.4.9

Video
ID : 1
Format : AVC
Format/Info : Advanced Video Codec
Format profile : [email protected]
Format settings : 2 Ref Frames
Format settings, CABAC : No
Format settings, ReFrames : 2 frames
Codec ID : V_MPEG4/ISO/AVC
Duration : 1 h 46 min
Bit rate : 3 914 kb/s
Width : 1 280 pixels
Height : 534 pixels
Display aspect ratio : 2.40:1
Frame rate mode : Constant
Frame rate : 23.976 (23976/1000) FPS
Color space : YUV
Chroma subsampling : 4:2:0
Bit depth : 8 bits
Scan type : Progressive
Bits/(Pixel*Frame) : 0.239
Stream size : 2.91 GiB (81%)
Title : We're No Angels
Language : English
Default : Yes
Forced : Yes
Color range : Limited
Color primaries : BT.709
Transfer characteristics : BT.709
Matrix coefficients : BT.709

Audio #1
ID : 2
Format : AC-3
Format/Info : Audio Coding 3
Commercial name : Dolby Digital
Codec ID : A_AC3
Duration : 1 h 46 min
Bit rate mode : Constant
Bit rate : 448 kb/s
Channel(s) : 6 channels
Channel layout : L R C LFE Ls Rs
Sampling rate : 48.0 kHz
Frame rate : 31.250 FPS (1536 SPF)
Bit depth : 16 bits
Compression mode : Lossy
Stream size : 341 MiB (9%)
Title : AniUA MVO
Language : Ukrainian
Service kind : Complete Main
Default : Yes
Forced : Yes

Audio #2
ID : 3
Format : AC-3
Format/Info : Audio Coding 3
Commercial name : Dolby Digital
Codec ID : A_AC3
Duration : 1 h 46 min
Bit rate mode : Constant
Bit rate : 448 kb/s
Channel(s) : 6 channels
Channel layout : L R C LFE Ls Rs
Sampling rate : 48.0 kHz
Frame rate : 31.250 FPS (1536 SPF)
Bit depth : 16 bits
Compression mode : Lossy
Stream size : 341 MiB (9%)
Title : Original
Language : English
Service kind : Complete Main
Default : No
Forced : No

Text
ID : 4
Format : UTF-8
Codec ID : S_TEXT/UTF8
Codec ID/Info : UTF-8 Plain Text
Duration : 1 h 45 min
Bit rate : 65 b/s
Count of elements : 1448
Stream size : 50.5 KiB (0%)
Title : SDH
Language : English
Default : No
Forced : No

Menu
00:00:00.000 : en:Main Titles
00:03:05.000 : en:No Minor Matter
00:08:42.000 : en:Are We Going?
00:12:17.000 : en:Hebrews 13:1
00:16:37.000 : en:Coins In The Pocket
00:21:13.000 : en:Priests?
00:25:42.000 : en:Brown and Riley
00:31:12.000 : en:Special Blessing
00:35:55.000 : en:Laying Low
00:40:12.000 : en:Such A Sinner
00:46:32.000 : en:Love The Stranger
00:50:28.000 : en:Piece Of Cake
00:56:56.000 : en:Shoes
01:04:23.000 : en:Afflicted
01:08:43.000 : en:300 Feet From Freedom
01:11:52.000 : en:You Shot The Guards
01:17:17.000 : en:Another Father Brown
01:21:35.000 : en:Miraculous Properties
01:26:52.000 : en:Our Ticket Across
01:31:25.000 : en:Into The River
01:37:02.000 : en:Bread And Circuses
01:43:11.000 : en:End Titles





Озвучено за фінансової підтримки NemoInFire


Джерело озвучення та релізу: AniUA


Авторський реліз (завантажувати можна без реєстрації)
 Трекер:    Зареєстрований   

Завантажити / скачати фільм українською



відео для новачків



 Зареєстрований:   2019-02-20 22:40
 Розмір:   3.57 GB 
 Оцінка фільму:   9.8/10 (Голосів: 5)
   
Інші релізи
   Ми не янголи / We're No Angels (1989) NemoInFire  1 / 0   1.46 GB   2019-03-02 19:57 
bot 
робот


З нами з: 30.09.07
Востаннє: 26.05.05
Повідомлень: 21625

2019-02-20 22:36  
Тему перенесено з Анонси релізів до форуму Фільми в HD


Arch Enemy

Ваш часовий пояс: GMT + 2 Години

Нова тема   Відповісти