Скотт Пілігрим проти Світу / Scott Pilgrim vs. the World (2010) Remux 1080p 3xUkr/Eng | Sub Ukr/Eng

Нові коментарі

Нова тема   Відповісти
Автор Повідомлення
IronBee 
Поважний учасник


З нами з: 08.02.10
Востаннє: 19.02.19
Повідомлень: 214

2019-02-13 12:16  
Скотт Пілігрим проти Світу / Scott Pilgrim vs. the World (2010) Remux 1080p 3xUkr/Eng | Sub Ukr/Eng

Скотт Пілігрим проти Світу / Scott Pilgrim vs. the World (2010) Remux 1080p 3xUkr/Eng | Sub Ukr/Eng


Жанр: комедія, фантастика
Країна: США



Кінокомпанія: Universal Pictures, Marc Platt Productions, Big Talk Productions
Режисер: Едґар Райт
Актори: Майкл Сера, Мері Елізабет Уінстед, Кієран Калкін, Кріс Еванз, Анна Кендрік, Елісон Піл, Брендон Рут, Джейсон Шварцман

Сюжет:
ок-музикант Скотт Пілігрим знайшов дівчину своєї мрії. Але на його шляху стоїть складніше завдання: щоб зустрічатися з нею, Скотту доведеться перемогти її сімох злих колишніх.
Але найголовніший суперник - не ці семеро колишніх...


Тривалість: 01:52:19
Якість: Remux
Відео:
кодек:
розмір кадру: 1920 х 1080
бітрейт: 28.0 Mб/с

Аудіо # 1:
мова: українська
переклад: багатоголосий закадровий | CINE+
кодек: 2.0
бітрейт: 192 кб/с

Аудіо # 2:
мова: українська
переклад: багатоголосий закадровий | НЛО.ТV
кодек: 2.0
бітрейт: 192 кб/с

Аудіо # 3:
мова: українська
переклад: багатоголосий закадровий (любительський) | Товариство "Три Крапки"
кодек: 2.0
бітрейт: 256 кб/с

Аудіо # 4:
мова: англійська
переклад: оригінал
кодек: -HD MA 5.1
бітрейт: 3947 кб/с

Субтитри # 1:
мова: українська (Повні)
тип: програмні (м'які)
формат: *.srt

Субтитри # 2-7:
мова: англійська (Повніl, форсовані, SDH, коментарі)
тип: пререндерні
формат: *.pgs
Info
General
Unique ID : 184913954190047023961083427521124736934 (0x8B1D21D4A54D98817E3A44030EE59FA6)
Complete name : E:\Films\Scott Pilgrim vs the World (2010) Remux 1080p [3xUkr,Eng sub.Ukr,Eng] [Hurtom].
Format :
Format version : Version 4
File size : 25.6 GiB
Duration : 1 h 52 min
Overall bit rate mode : Variable
Overall bit rate : 32.6 Mb/s
Encoded date : UTC 2019-02-13 08:52:06
Writing application : v30.1.0 ('Forever And More') 64-bit
Writing library : libebml v1.3.6 + v1.4.9

Video
ID : 1
Format : AVC
Format/Info : Advanced Video Codec
Format profile : [email protected]
Format settings : CABAC / 4 Ref Frames
Format settings, CABAC : Yes
Format settings, ReFrames : 4 frames
Codec ID : V_MPEG4/ISO/AVC
Duration : 1 h 52 min
Bit rate mode : Variable
Bit rate : 28.0 Mb/s
Maximum bit rate : 32.0 Mb/s
Width : 1 920 pixels
Height : 1 080 pixels
Display aspect ratio : 16:9
Frame rate mode : Constant
Frame rate : 23.976 (24000/1001) FPS
Color space : YUV
Chroma subsampling : 4:2:0
Bit depth : 8 bits
Scan type : Progressive
Bits/(Pixel*Frame) : 0.562
Stream size : 21.9 GiB (86%)
Default : Yes
Forced : No
Color range : Limited
Color primaries : BT.709
Transfer characteristics : BT.709
Matrix coefficients : BT.709

Audio #1
ID : 2
Format : AC-3
Format/Info : Audio Coding 3
Commercial name : Dolby Digital
Codec ID : A_AC3
Duration : 1 h 52 min
Bit rate mode : Constant
Bit rate : 192 kb/s
Channel(s) : 2 channels
Channel layout : L R
Sampling rate : 48.0 kHz
Frame rate : 31.250 FPS (1536 SPF)
Bit depth : 16 bits
Compression mode : Lossy
Stream size : 154 MiB (1%)
Title : 2.0 192 кбіт/с багатоголосий закадровий CINE+
Language : Ukrainian
Service kind : Complete Main
Default : Yes
Forced : No

Audio #2
ID : 3
Format : AC-3
Format/Info : Audio Coding 3
Commercial name : Dolby Digital
Codec ID : A_AC3
Duration : 1 h 52 min
Bit rate mode : Constant
Bit rate : 192 kb/s
Channel(s) : 2 channels
Channel layout : L R
Sampling rate : 48.0 kHz
Frame rate : 31.250 FPS (1536 SPF)
Bit depth : 16 bits
Compression mode : Lossy
Stream size : 154 MiB (1%)
Title : 2.0 192 кбіт/с багатоголосий закадровий НЛО.TV
Language : Ukrainian
Service kind : Complete Main
Default : No
Forced : No

Audio #3
ID : 4
Format : AC-3
Format/Info : Audio Coding 3
Commercial name : Dolby Digital
Codec ID : A_AC3
Duration : 1 h 52 min
Bit rate mode : Constant
Bit rate : 256 kb/s
Channel(s) : 2 channels
Channel layout : L R
Sampling rate : 48.0 kHz
Frame rate : 31.250 FPS (1536 SPF)
Bit depth : 16 bits
Compression mode : Lossy
Stream size : 206 MiB (1%)
Title : 2.0 256 кбіт/с багатоголосий закадровий | Товариство "Три крапки"
Language : Ukrainian
Service kind : Complete Main
Default : No
Forced : No

Audio #4
ID : 5
Format : XLL
Format/Info : Digital Theater Systems
Commercial name : -HD Master Audio
Codec ID : A_DTS
Duration : 1 h 52 min
Bit rate mode : Variable
Bit rate : 3 947 kb/s
Channel(s) : 6 channels
Channel layout : C L R Ls Rs LFE
Sampling rate : 48.0 kHz
Frame rate : 93.750 FPS (512 SPF)
Bit depth : 24 bits
Compression mode : Lossless
Stream size : 3.10 GiB (12%)
Language : English
Default : No
Forced : No

Text #1
ID : 6
Format : UTF-8
Codec ID : S_TEXT/UTF8
Codec ID/Info : UTF-8 Plain Text
Duration : 1 h 51 min
Bit rate : 115 b/s
Count of elements : 1779
Stream size : 94.3 KiB (0%)
Language : Ukrainian
Default : Yes
Forced : No

Text #2
ID : 7
Format : PGS
Muxing mode : zlib
Codec ID : S_HDMV/PGS
Codec ID/Info : Picture based subtitle format used on BDs/HD-DVDs
Duration : 1 h 48 min
Bit rate : 49.5 kb/s
Count of elements : 3921
Stream size : 38.4 MiB (0%)
Language : English
Default : No
Forced : No

Text #3
ID : 8
Format : PGS
Muxing mode : zlib
Codec ID : S_HDMV/PGS
Codec ID/Info : Picture based subtitle format used on BDs/HD-DVDs
Duration : 1 h 52 min
Bit rate : 90.0 kb/s
Count of elements : 4363
Stream size : 72.1 MiB (0%)
Language : English
Default : No
Forced : No

Text #4
ID : 9
Format : PGS
Muxing mode : zlib
Codec ID : S_HDMV/PGS
Codec ID/Info : Picture based subtitle format used on BDs/HD-DVDs
Duration : 1 h 52 min
Bit rate : 80.2 kb/s
Count of elements : 3762
Stream size : 64.2 MiB (0%)
Language : English
Default : No
Forced : No

Text #5
ID : 10
Format : PGS
Muxing mode : zlib
Codec ID : S_HDMV/PGS
Codec ID/Info : Picture based subtitle format used on BDs/HD-DVDs
Duration : 1 h 52 min
Bit rate : 76.5 kb/s
Count of elements : 5756
Stream size : 61.4 MiB (0%)
Language : English
Default : No
Forced : No

Text #6
ID : 11
Format : PGS
Muxing mode : zlib
Codec ID : S_HDMV/PGS
Codec ID/Info : Picture based subtitle format used on BDs/HD-DVDs
Duration : 1 h 52 min
Bit rate : 74.4 kb/s
Count of elements : 4631
Stream size : 59.6 MiB (0%)
Language : English
Default : No
Forced : No

Text #7
ID : 12
Format : PGS
Muxing mode : zlib
Codec ID : S_HDMV/PGS
Codec ID/Info : Picture based subtitle format used on BDs/HD-DVDs
Duration : 1 h 52 min
Bit rate : 18.7 kb/s
Count of elements : 659
Stream size : 15.0 MiB (0%)
Language : English
Default : No
Forced : No
Скріншоти




Джерело: &
Особиста оцінка: 0 - не дивився


Авторський реліз (завантажувати можна без реєстрації)
 Трекер:    Зареєстрований   

Завантажити / скачати фільм українською



відео для новачків



 Зареєстрований:   2019-02-13 12:16
 Розмір:   25.63 GB 
 Оцінка фільму:   9/10 (Голосів: 1)
   
Ваш часовий пояс: GMT + 2 Години

Нова тема   Відповісти