Під Сільвер Лейк / Under The Silver Lake (2018) 1080p 2xUkr/Eng | Sub Eng

Нові коментарі

Нова тема   Відповісти
Автор Повідомлення
staf777 
Відео Гуртом - підтримка та поширення
Відео Гуртом - підтримка та поширення


З нами з: 16.11.16
Востаннє: 17.11.19
Повідомлень: 3034

2019-02-13 11:55  
Під Сільвер Лейк / Under The Silver Lake (2018) 1080p 2xUkr/Eng | Sub Eng

Під Сільвер Лейк / Under The Silver Lake (2018) 1080p 2xUkr/Eng | Sub Eng


Жанр: комедія, кримінальний, драма, детектив, трилер
Країна: США



Кінокомпанія: Vendian Entertainment, Stay Gold Features, Good Fear Film + Management
Режисер: Девід Роберт Мітчел / David Robert Mitchell
Актори: Ендрю Ґарфілд / Andrew Garfield, Венді Ванден Гувел / Wendy Vanden Heuvel, Дебора Ґеффнер / Deborah Geffner, Райлі Кіо / Riley Keough, Рікі Ліндгоум / Riki Lindhome, Жанін Кота / Jeannine Cota, Кріс Ґанн / Chris Gann та інші.

Сюжет:
Сем знайомиться з дівчиною, яка наступного дня зникає за загадкових обставин. Тепер він одержимий ідеєю знайти її, та намагається знайти хоч якісь зачіпки в усьому, що він бачить та чує. Несподівано він знаходить щось схоже на код чи ланцюжок таємних повідомлень...


Тривалість: 02:19:22
Якість: 1080p
Відео:
кодек:
розмір кадру: 1920x802
бітрейт: 11 Mб/с

Аудіо # 1:
мова: українська
переклад: багатоголосий закадровий | DniproFilm
кодек: 5.1
бітрейт: 384 кб/с

Аудіо # 2:
мова: українська
переклад: багатоголосий закадровий
кодек: 2.0 (стерео)
бітрейт: 192 кб/с

Аудіо # 3:
мова: англійська
переклад: оригінал
кодек: 5.1
бітрейт: 1509 кб/с

Субтитри:
мова: англійська
тип: програмні (м'які)
формат: *.srt
Info
General
Unique ID : 328301681620096959219067639415880870436 (0xF6FC9A9BF97CDEAFBA7AB9A26850EA24)
Complete name : S:\» HD українською » Фільми в HD\Трилер\Under The Silver Lake (2018) 1080p [2xUKR_ENG] [Hurtom].
Format :
Format version : Version 4
File size : 12.7 GiB
Duration : 2 h 19 min
Overall bit rate : 13.1 Mb/s
Movie name : Under The Silver Lake (2018) 1080p [2xUKR_ENG] [Hurtom]
Encoded date : UTC 2019-02-13 09:37:45
Writing application : v30.1.0 ('Forever And More') 64-bit
Writing library : libebml v1.3.6 + v1.4.9
Cover : Yes
Attachments : cover.jpg

Video
ID : 1
Format : AVC
Format/Info : Advanced Video Codec
Format profile : [email protected]
Format settings : CABAC / 5 Ref Frames
Format settings, CABAC : Yes
Format settings, ReFrames : 5 frames
Codec ID : V_MPEG4/ISO/AVC
Duration : 2 h 19 min
Bit rate : 11.0 Mb/s
Width : 1 920 pixels
Height : 802 pixels
Display aspect ratio : 2.40:1
Frame rate mode : Constant
Frame rate : 23.976 (24000/1001) FPS
Color space : YUV
Chroma subsampling : 4:2:0
Bit depth : 8 bits
Scan type : Progressive
Bits/(Pixel*Frame) : 0.298
Stream size : 10.7 GiB (84%)
Title : LoRD
Writing library : core 157 r2935 LoRD
Encoding settings : cabac=1 / ref=5 / deblock=1:-3:-3 / analyse=0x3:0x133 / me=umh / subme=10 / psy=1 / psy_rd=1.00:0.00 / mixed_ref=1 / me_range=32 / chroma_me=1 / trellis=2 / 8x8dct=1 / cqm=0 / deadzone=21,11 / fast_pskip=0 / chroma_qp_offset=-2 / threads=12 / lookahead_threads=2 / sliced_threads=0 / nr=0 / decimate=0 / interlaced=0 / bluray_compat=0 / constrained_intra=0 / bframes=8 / b_pyramid=2 / b_adapt=2 / b_bias=0 / direct=3 / weightb=1 / open_gop=0 / weightp=2 / keyint=250 / keyint_min=23 / scenecut=40 / intra_refresh=0 / rc_lookahead=60 / rc=2pass / mbtree=0 / bitrate=11000 / ratetol=1.0 / qcomp=0.60 / qpmin=0 / qpmax=69 / qpstep=4 / cplxblur=20.0 / qblur=0.5 / vbv_maxrate=50000 / vbv_bufsize=62500 / nal_hrd=none / filler=0 / ip_ratio=1.30 / pb_ratio=1.20 / aq=3:0.80
Language : English
Default : Yes
Forced : Yes

Audio #1
ID : 2
Format : AC-3
Format/Info : Audio Coding 3
Commercial name : Dolby Digital
Codec ID : A_AC3
Duration : 2 h 19 min
Bit rate mode : Constant
Bit rate : 384 kb/s
Channel(s) : 6 channels
Channel layout : L R C LFE Ls Rs
Sampling rate : 48.0 kHz
Frame rate : 31.250 FPS (1536 SPF)
Bit depth : 16 bits
Compression mode : Lossy
Stream size : 382 MiB (3%)
Title : MVO [DniproFilm], 5.1 384 kbps
Language : Ukrainian
Service kind : Complete Main
Default : Yes
Forced : Yes

Audio #2
ID : 3
Format : AC-3
Format/Info : Audio Coding 3
Commercial name : Dolby Digital
Codec ID : A_AC3
Duration : 2 h 19 min
Bit rate mode : Constant
Bit rate : 192 kb/s
Channel(s) : 2 channels
Channel layout : L R
Sampling rate : 48.0 kHz
Frame rate : 31.250 FPS (1536 SPF)
Bit depth : 16 bits
Compression mode : Lossy
Stream size : 191 MiB (1%)
Title : MVO [Volia CINE+] 2.0 [stereo] 192 Kbps
Language : Ukrainian
Service kind : Complete Main
Default : No
Forced : No

Audio #3
ID : 4
Format :
Format/Info : Digital Theater Systems
Codec ID : A_DTS
Duration : 2 h 19 min
Bit rate mode : Constant
Bit rate : 1 509 kb/s
Channel(s) : 6 channels
Channel layout : C L R Ls Rs LFE
Sampling rate : 48.0 kHz
Frame rate : 93.750 FPS (512 SPF)
Bit depth : 24 bits
Compression mode : Lossy
Stream size : 1.47 GiB (12%)
Title : Original
Language : English
Default : No
Forced : No

Text
ID : 5
Format : UTF-8
Codec ID : S_TEXT/UTF8
Codec ID/Info : UTF-8 Plain Text
Duration : 2 h 14 min
Bit rate : 43 b/s
Count of elements : 1359
Stream size : 43.4 KiB (0%)
Title : Full
Language : English
Default : No
Forced : No

Menu
00:00:00.000 : en:Chapter 01
00:09:17.015 : en:Chapter 02
00:18:07.169 : en:Chapter 03
00:28:09.897 : en:Chapter 04
00:37:20.613 : en:Chapter 05
00:44:13.818 : en:Chapter 06
00:54:04.158 : en:Chapter 07
01:04:16.102 : en:Chapter 08
01:13:33.242 : en:Chapter 09
01:22:21.854 : en:Chapter 10
01:29:52.846 : en:Chapter 11
01:36:43.798 : en:Chapter 12
01:43:59.859 : en:Chapter 13
01:54:45.712 : en:Chapter 14
02:07:37.316 : en:Chapter 15



Робота зі звуком Sando7
Джерело: &
Особиста оцінка: 8 - мені сподобалося
Під Сільвер Лейк / Under The Silver Lake (2018) 1080p 2xUkr/Eng | Sub Eng Під Сільвер Лейк / Under The Silver Lake (2018) 1080p 2xUkr/Eng | Sub Eng


Авторський реліз (завантажувати можна без реєстрації)
 Трекер:    Зареєстрований   

Завантажити / скачати фільм українською



відео для новачків



 Зареєстрований:   2019-02-13 11:55
 Розмір:   12.74 GB 
 Оцінка фільму:   7.9/10 (Голосів: 13)
   
kovalenkodv 
Новенький


З нами з: 05.05.11
Востаннє: 08.11.19
Повідомлень: 4

2019-02-21 22:02  
Мені сподобалось, не без того, що сюжет не найоригільніший, але фільм із інтригою.
reminor7 
VIP


З нами з: 15.08.11
Востаннє: 16.11.19
Повідомлень: 334

2019-08-04 13:05  
Гарний фільм.
Думаю, що цей фільм можна також віднести до рубрики АртХаус.

10/10

sade 
Новенький


З нами з: 17.03.11
Востаннє: 17.11.19
Повідомлень: 15

2019-10-18 19:27  
Обновіть звук з Нового каналу... Дякую
Ваш часовий пояс: GMT + 2 Години

Нова тема   Відповісти