Пряничний чоловічок / The Gingerbread Man (1998) Remux 1080p Ukr/Eng | Sub Eng

Нові коментарі

Нова тема   Відповісти
Останній раз роздавалося staf777 (2019-02-21)
Автор Повідомлення
staf777 
Попереджень: 1
Попереджень: 1 


З нами з: 16.11.16
Востаннє: 21.02.19
Повідомлень: 2152

2019-02-13 10:44  
Пряничний чоловічок / The Gingerbread Man (1998) Remux 1080p Ukr/Eng | Sub Eng

Пряничний чоловічок / The Gingerbread Man (1998) Remux 1080p Ukr/Eng | Sub Eng


Жанр: трилер
Країна: США



Кінокомпанія: Enchanter Entertainment, Island Pictures
Режисер: Роберт Алтмен / Robert Altman
Актори: Кеннет Брена / Kenneth Branagh, Ембет Девідц / Embeth Davidtz, Роберт Дауні мол. / Robert Downey Jr., Деріл Ганна / Daryl Hannah, Том Беренджер / Tom Berenger, Фамке Янссен / Famke Janssen, Мей Вітман / Mae Whitman та інші

Сюжет:
Успішний адвокат Рік Магрудер нещодавно розлучився з дружиною. У його активі - успішна кар'єра, бездоганна репутація. На одній з вечірок він знайомиться з привабливою офіціанткою Меллорі Досс. Рік не здогадувався, до чого призведе зустріч з цією жінкою. Потураючи її бажанням, він заплутується у павутині брехні, і це призводить до страшних наслідків.


Тривалість: 01:54:30
Якість: Remux 1080p
Відео:
кодек:
розмір кадру: 1920x1080
бітрейт: 35.8 Mб/с

Аудіо # 1:
мова: українська
переклад: багатоголосий закадровий
кодек: 2.0
бітрейт: 192 кб/с

Аудіо # 2:
мова: англійська
переклад: оригінал
кодек: -HD MA 5.1
бітрейт: 2278 кб/с

Субтитри:
мова: англійська
тип: пререндерні
формат: *.pgs
Info
General
Unique ID : 274489756723780160088451405855512989281 (0xCE80CDDF6884050BDF176DB155C20E61)
Complete name : S:\» HD українською » Фільми в HD\Трилер\The Gingerbread Man (1998) Remux 1080p [UKR_ENG] [Hurtom].
Format :
Format version : Version 4
File size : 30.7 GiB
Duration : 1 h 54 min
Overall bit rate mode : Variable
Overall bit rate : 38.3 Mb/s
Movie name : The Gingerbread Man (1998) Remux 1080p [UKR_ENG] [Hurtom]
Encoded date : UTC 2019-02-14 06:38:24
Writing application : v30.1.0 ('Forever And More') 64-bit
Writing library : libebml v1.3.6 + v1.4.9
Cover : Yes
Attachments : cover.jpg

Video
ID : 1
Format : AVC
Format/Info : Advanced Video Codec
Format profile : [email protected]
Format settings : CABAC / 3 Ref Frames
Format settings, CABAC : Yes
Format settings, ReFrames : 3 frames
Codec ID : V_MPEG4/ISO/AVC
Duration : 1 h 54 min
Bit rate mode : Variable
Bit rate : 35.8 Mb/s
Maximum bit rate : 38.0 Mb/s
Width : 1 920 pixels
Height : 1 080 pixels
Display aspect ratio : 16:9
Frame rate mode : Constant
Frame rate : 23.976 (24000/1001) FPS
Color space : YUV
Chroma subsampling : 4:2:0
Bit depth : 8 bits
Scan type : Progressive
Bits/(Pixel*Frame) : 0.721
Stream size : 28.7 GiB (94%)
Default : Yes
Forced : No
Color range : Limited
Color primaries : BT.709
Transfer characteristics : BT.709
Matrix coefficients : BT.709

Audio #1
ID : 2
Format : AC-3
Format/Info : Audio Coding 3
Commercial name : Dolby Digital
Codec ID : A_AC3
Duration : 1 h 54 min
Bit rate mode : Constant
Bit rate : 192 kb/s
Channel(s) : 2 channels
Channel layout : L R
Sampling rate : 48.0 kHz
Frame rate : 31.250 FPS (1536 SPF)
Bit depth : 16 bits
Compression mode : Lossy
Stream size : 157 MiB (1%)
Language : Ukrainian
Service kind : Complete Main
Default : Yes
Forced : Yes

Audio #2
ID : 3
Format : XLL
Format/Info : Digital Theater Systems
Commercial name : -HD Master Audio
Codec ID : A_DTS
Duration : 1 h 54 min
Bit rate mode : Variable
Bit rate : 2 278 kb/s
Channel(s) : 6 channels
Channel layout : C L R Ls Rs LFE
Sampling rate : 48.0 kHz
Frame rate : 93.750 FPS (512 SPF)
Bit depth : 16 bits
Compression mode : Lossless
Stream size : 1.82 GiB (6%)
Language : English
Default : No
Forced : No

Text
ID : 4
Format : PGS
Muxing mode : zlib
Codec ID : S_HDMV/PGS
Codec ID/Info : Picture based subtitle format used on BDs/HD-DVDs
Duration : 1 h 46 min
Bit rate : 31.2 kb/s
Count of elements : 1869
Stream size : 23.7 MiB (0%)
Language : English
Default : No
Forced : No



Подяки Sando7, voin747, patriot2305 за український звук
Джерело: &
Особиста оцінка: 0 - не дивився
ЗАЛИШАЙТЕСЬ ЯКОМОГА ДОВШЕ НА РОЗДАЧІ!

СКАЧАВ САМ - ДАЙ СКАЧАТИ ІНШИМ



Золотий реліз (завантажене не впливає на рейтинг)
 Трекер:    Зареєстрований   

Завантажити / скачати фільм українською



відео для новачків



 Зареєстрований:   2019-02-14 10:32
 Розмір:   30.66 GB 
 Оцінка фільму:   7.8/10 (Голосів: 4)
   
Інші релізи
bot 
робот


З нами з: 30.09.07
Востаннє: 26.05.05
Повідомлень: 20706

2019-02-14 10:32  
Тему перенесено з Анонси релізів до форуму Фільми в HD


staf777

Ваш часовий пояс: GMT + 2 Години

Нова тема   Відповісти