Патріот [Розширена версія] / The Patriot [Extended Cut] (2000) 1080p H.265 Ukr/Eng | Sub Eng

Нові коментарі

Нова тема   Відповісти
Автор Повідомлення
Anonymous 







2019-02-13 10:57  
Патріот [Розширена версія] / The Patriot [Extended Cut] (2000) 1080p H.265 Ukr/Eng | Sub Eng

Патріот [Розширена версія] / The Patriot [Extended Cut] (2000) 1080p H.265 Ukr/Eng | Sub Eng


Жанр: бойовик, драма, військовий
Країна: США, Німеччина
Кінокомпанія: Columbia Pictures Corporation | Centropolis Entertainment | Mutual Film Company | Global Entertainment Productions GmbH & Company Medien KG
Режисер: Роланд Еммеріх (Roland Emmerich)
Актори: Мел Ґібсон (Mel Gibson), Гіт Леджер (Heath Ledger), Джоелі Річардсон (Joely Richardson), Джейсон Айзекс (Jason Isaacs), Кріс Купер (Chris Cooper), Чекі Каріо (Tchéky Karyo), Рене Обержонуа (Rene Auberjonois), Ліза Бреннер (Lisa Brenner), Том Вілкінсон (Tom Wilkinson), Донал Балка (Donal Logue)

Сюжет:
Коли над країною спалахнуло смертоносне полум'я страшної війни за незалежність США, прославлений ветеран і батько семи дітей Бенджамін Мартін залишився збоку. Але холоднокровне вбивство його сина відразу змінює все його життя.

Спрага помсти перетворила військову науку на жорстоку бійню, а мирного плантатора - в безжалісного командира найнебезпечнішого загону повстанців.

Тривалість: 02:55:06
Якість:
Відео:
кодек: H.265 (HEVC)
розмір кадру: 1920 x 800
бітрейт: 5 057 кб/с
бітова глибина: 10 біт
Увага! Перед завантаженням переконайтесь, що ваш пристрій відтворення (та/або ПЗ) підтримує H.265 (HEVC)

Аудіо # 1:
мова: українська
переклад: багатоголосий закадровий
кодек: AC-3 5.1
бітрейт: 448 кб/с

Аудіо # 2:
мова: англійська
переклад: оригінал
кодек: AC-3 5.1
бітрейт: 448 кб/с

Субтитри # 1: (до моментів без перекладу)
мова: українська (Forced),
тип: програмні (м'які)
формат: *.srt

Субтитри # 2:
мова: англійська (Full),
тип: програмні (м'які)
формат: *.


Info
Код:
General
Unique ID                                : 35523453063416440967823562426326687372 (0x1AB9917571638A029183FBA1B54B9E8C)
Complete name                            : F:\Video\The Patriot (2000) [Extended] 1080p H.265 [UKR_ENG].
Format                                   :
Format version                           : Version 4 / Version 2
File size                                : 7.28 GiB
Duration                                 : 2 h 55 min
Overall bit rate                         : 5 955 kb/s
Movie name                               : The Patriot [Extended Cut] (2000)
Encoded date                             : UTC 2019-02-13 06:58:27
Writing application                      : v20.0.0 ('I Am The Sun') 64-bit
Writing library                          : libebml v1.3.5 + v1.4.8
Cover                                    : Yes
Attachments                              : Cover.jpg

Video
ID                                       : 1
Format                                   : HEVC
Format/Info                              : High Efficiency Video Coding
Format profile                           : Main [email protected]@Main
Codec ID                                 : V_MPEGH/ISO/HEVC
Duration                                 : 2 h 55 min
Bit rate                                 : 5 057 kb/s
Width                                    : 1 920 pixels
Height                                   : 800 pixels
Display aspect ratio                     : 2.40:1
Frame rate mode                          : Constant
Frame rate                               : 23.976 (24000/1001) FPS
Color space                              : YUV
Chroma subsampling                       : 4:2:0
Bit depth                                : 10 bits
Bits/(Pixel*Frame)                       : 0.137
Stream size                              : 6.19 GiB (85%)
Title                                    : The Patriot [Extended Cut] (2000)
Writing library                          : x265 2.7+12-98e48e8dd6ab:[Windows][GCC 7.3.0][64 bit] 10bit
Encoding settings                        : cpuid=1173503 / frame-threads=3 / numa-pools=8 / wpp / no-pmode / no-pme / no-psnr / no-ssim / log-level=2 / input-csp=1 / input-res=1920x800 / interlace=0 / total-frames=251904 / level-idc=0 / high-tier=1 / uhd-bd=0 / ref=4 / no-allow-non-conformance / no-repeat-headers / annexb / no-aud / no-hrd / info / hash=0 / no-temporal-layers / open-gop / min-keyint=23 / keyint=250 / gop-lookahead=0 / bframes=4 / b-adapt=2 / b-pyramid / bframe-bias=0 / rc-lookahead=25 / lookahead-slices=4 / scenecut=40 / radl=0 / no-intra-refresh / ctu=64 / min-cu-size=8 / rect / no-amp / max-tu-size=32 / tu-inter-depth=1 / tu-intra-depth=1 / limit-tu=0 / rdoq-level=2 / dynamic-rd=0.00 / no-ssim-rd / signhide / no-tskip / nr-intra=0 / nr-inter=0 / no-constrained-intra / strong-intra-smoothing / max-merge=3 / limit-refs=3 / limit-modes / me=3 / subme=3 / merange=57 / temporal-mvp / weightp / no-weightb / no-analyze-src-pics / deblock=0:0 / sao / no-sao-non-deblock / rd=4 / no-early-skip / rskip / no-fast-intra / no-tskip-fast / no-cu-lossless / no-b-intra / no-splitrd-skip / rdpenalty=0 / psy-rd=2.00 / psy-rdoq=1.00 / no-rd-refine / no-lossless / cbqpoffs=0 / crqpoffs=0 / rc=abr / bitrate=5057 / qcomp=0.60 / qpstep=4 / stats-write=0 / stats-read=2 / cplxblur=20.0 / qblur=0.5 / ipratio=1.40 / pbratio=1.30 / aq-mode=3 / aq-strength=1.00 / cutree / zone-count=0 / no-strict-cbr / qg-size=32 / no-rc-grain / qpmax=69 / qpmin=0 / no-const-vbv / sar=0 / overscan=0 / videoformat=5 / range=0 / colorprim=2 / transfer=2 / colormatrix=2 / chromaloc=0 / display-window=0 / max-cll=0,0 / min-luma=0 / max-luma=1023 / log2-max-poc-lsb=8 / vui-timing-info / vui-hrd-info / slices=1 / no-opt-qp-pps / no-opt-ref-list-length-pps / multi-pass-opt-rps / scenecut-bias=0.05 / no-opt-cu-delta-qp / aq-motion / no-hdr / no-hdr-opt / no-dhdr10-opt / no-idr-recovery-sei / analysis-reuse-level=5 / scale-factor=0 / refine-intra=0 / refine-inter=0 / refine-mv=0 / no-limit-sao / ctu-info=0 / no-lowpass-dct / refine-mv-type=0 / copy-pic=1 / max-ausize-factor=1.0 / no-dynamic-refine
Default                                  : Yes
Forced                                   : No

Audio #1
ID                                       : 2
Format                                   : AC-3
Format/Info                              : Audio Coding 3
Codec ID                                 : A_AC3
Duration                                 : 2 h 55 min
Bit rate mode                            : Constant
Bit rate                                 : 448 kb/s
Channel(s)                               : 6 channels
Channel positions                        : Front: L C R, Side: L R, LFE
Sampling rate                            : 48.0 kHz
Frame rate                               : 31.250 FPS (1536 SPF)
Bit depth                                : 16 bits
Compression mode                         : Lossy
Stream size                              : 561 MiB (8%)
Title                                    : БЗ - Inter
Language                                 : Ukrainian
Service kind                             : Complete Main
Default                                  : Yes
Forced                                   : No

Audio #2
ID                                       : 3
Format                                   : AC-3
Format/Info                              : Audio Coding 3
Codec ID                                 : A_AC3
Duration                                 : 2 h 55 min
Bit rate mode                            : Constant
Bit rate                                 : 448 kb/s
Channel(s)                               : 6 channels
Channel positions                        : Front: L C R, Side: L R, LFE
Sampling rate                            : 48.0 kHz
Frame rate                               : 31.250 FPS (1536 SPF)
Bit depth                                : 16 bits
Compression mode                         : Lossy
Stream size                              : 561 MiB (8%)
Title                                    : Original
Language                                 : English
Service kind                             : Complete Main
Default                                  : No
Forced                                   : No

Text #1
ID                                       : 4
Format                                   : UTF-8
Codec ID                                 : S_TEXT/UTF8
Codec ID/Info                            : UTF-8 Plain Text
Duration                                 : 2 h 19 min
Bit rate                                 : 4 b/s
Count of elements                        : 81
Stream size                              : 4.85 KiB (0%)
Title                                    : Forced
Language                                 : Ukrainian
Default                                  : Yes
Forced                                   : Yes

Text #2
ID                                       : 5
Format                                   :
Codec ID                                 : S_TEXT/
Codec ID/Info                            : Advanced Sub Station Alpha
Duration                                 : 2 h 46 min
Bit rate                                 : 69 b/s
Count of elements                        : 1399
Compression mode                         : Lossless
Stream size                              : 84.3 KiB (0%)
Title                                    : Full
Language                                 : English
Default                                  : No
Forced                                   : No

Menu
00:00:00.000                             : en:Chapter 01
00:13:15.753                             : en:Chapter 02
00:26:37.053                             : en:Chapter 03
00:34:58.429                             : en:Chapter 04
00:41:35.034                             : en:Chapter 05
00:56:25.715                             : en:Chapter 06
01:06:12.927                             : en:Chapter 07
01:20:24.361                             : en:Chapter 08
01:28:18.001                             : en:Chapter 09
01:36:39.168                             : en:Chapter 10
01:46:41.520                             : en:Chapter 11
02:00:11.996                             : en:Chapter 12
02:07:09.288                             : en:Chapter 13
02:14:08.331                             : en:Chapter 14
02:31:26.285                             : en:Chapter 15
02:38:55.984                             : en:Chapter 16
Світлини





Джерело: &
Особиста оцінка: 0 - не дивився


Срібний реліз (на рейтинг впливає 50% завантаженого)
 Трекер:    Зареєстрований   

Завантажити / скачати фільм українською



відео для новачків



 Зареєстрований:   2019-02-13 10:57
 Розмір:   7.28 GB 
 Оцінка фільму:   9.6/10 (Голосів: 12)
   
Форкуш 
VIP


З нами з: 03.02.10
Востаннє: 27.09.20
Повідомлень: 2849

2019-02-13 12:57  
авс зробіть будь ласка
Anonymous 







2019-02-13 14:05  
Форкуш
Ось - https://toloka.to/t98996

Форкуш 
VIP


З нами з: 03.02.10
Востаннє: 27.09.20
Повідомлень: 2849

2019-02-13 14:06  
-Star-Lord-
Дякую щиро!!!

0mage0 
VIP


З нами з: 06.10.15
Востаннє: 27.09.20
Повідомлень: 696

2019-03-26 21:04  
Цікавий фільм.
Але цікаво як це вони після того, як спалили їхню хату, щоразу з'являються чистенькі, вдягнені та на коні?
Ну і цей епізод, де надурили генерала, видавши опудала на пагорбі за полонених офіцерів... Хіба британці не могли перевірити, що жодних офіцерів не брали в полон?

Ваш часовий пояс: GMT + 2 Години

Нова тема   Відповісти