Малавіта (Malavita) / The Family (2013) 1080p H.265 2xUkr/Eng | Sub Eng

Нові коментарі

Нова тема   Відповісти
Автор Повідомлення
Anonymous 







2019-02-13 10:48  
Малавіта (Malavita) / The Family (2013) 1080p H.265 2xUkr/Eng | Sub Eng

Малавіта (Malavita) / The Family (2013) 1080p H.265 2xUkr/Eng | Sub Eng


Жанр: комедія, кримінальний, трилер
Країна: США, Франція
Кінокомпанія: EuropaCorp, Relativity Media, TF1 Films Production
Режисер: Люк Бессон / Luc Besson
Актори: Роберт Де Ніро / Robert De Niro, Мішель Пфайфер / Michelle Pfeiffer, Томмі Лі Джонс / Tommy Lee Jones, Діана Аґрон / Dianna Agron, Джон Д’Лео / John D'Leo, Джон Фреда / Jon Freda, Джимі Палумбо / Jimmy Palumbo та інші

Сюжет:
У мале французьке місто приїжджає письменник Фред Блейк разом зі своєю родиною: дружиною, донькою і сином. Але насправді Фред Блейк — це Джованні Манцоні, мафіозі, що переховується у Франції за програмою захисту свідків. Сім'я дуже часто змінює своє місце перебування, оскільки їх знаходила італійська мафія. Коза Ностра знайшла їх і у Франції.

Тривалість: 01:51:33
Якість:
Відео:
кодек: H.265 (HEVC)
розмір кадру: 1920 x 800
бітрейт: 5334 кб/с
бітова глибина: 10 біт
Увага! Перед завантаженням переконайтесь, що ваш пристрій відтворення (та/або ПЗ) підтримує H.265 (HEVC)

Аудіо # 1:
мова: українська
переклад: багатоголосий закадровий
кодек: 2.0
бітрейт: 192 кб/с

Аудіо # 2:
мова: українська
переклад: професійний дубльований
кодек: 2.0
бітрейт: 192 кб/с

Аудіо # 3:
мова: англійська
переклад: оригінал
кодек: 5.1
бітрейт: 516 кб/с

Субтитри # 1:
мова: англійська (Full),
тип: програмні (м'які)
формат: *.srt

Субтитри # 2:
мова: англійська (SDH),
тип: програмні (м'які)
формат: *.srt

Субтитри # 3:
мова: англійська (SDH-Colored),
тип: програмні (м'які)
формат: *.srt


Info
Код:
General
Unique ID                                : 262112655981269578942090413265631787657 (0xC5310FB113879562BEEDF066612F3A89)
Complete name                            : F:\Video\The Family (2013) 1080p H.265 [2xUKR_ENG] [Hurtom].
Format                                   :
Format version                           : Version 4 / Version 2
File size                                : 4.86 GiB
Duration                                 : 1 h 51 min
Overall bit rate                         : 6 237 kb/s
Movie name                               : The Family (2013)
Encoded date                             : UTC 2019-02-20 00:21:34
Writing application                      : v20.0.0 ('I Am The Sun') 64-bit
Writing library                          : libebml v1.3.5 + v1.4.8
Cover                                    : Yes
Attachments                              : Cover.jpg

Video
ID                                       : 1
Format                                   : HEVC
Format/Info                              : High Efficiency Video Coding
Format profile                           : Main [email protected]@Main
Codec ID                                 : V_MPEGH/ISO/HEVC
Duration                                 : 1 h 51 min
Bit rate                                 : 5 334 kb/s
Width                                    : 1 920 pixels
Height                                   : 800 pixels
Display aspect ratio                     : 2.40:1
Frame rate mode                          : Constant
Frame rate                               : 23.976 (24000/1001) FPS
Color space                              : YUV
Chroma subsampling                       : 4:2:0
Bit depth                                : 10 bits
Bits/(Pixel*Frame)                       : 0.145
Stream size                              : 4.16 GiB (86%)
Title                                    : The Family (2013)
Writing library                          : x265 3.0_RC+14-46b84ff665fd:[Windows][MSVC 1916][64 bit] 10bit
Encoding settings                        : cpuid=1111039 / frame-threads=5 / numa-pools=32,0 / wpp / no-pmode / no-pme / no-psnr / no-ssim / log-level=2 / input-csp=1 / input-res=1920x800 / interlace=0 / total-frames=160488 / level-idc=0 / high-tier=1 / uhd-bd=0 / ref=5 / no-allow-non-conformance / no-repeat-headers / annexb / no-aud / no-hrd / info / hash=0 / no-temporal-layers / open-gop / min-keyint=23 / keyint=250 / gop-lookahead=0 / bframes=8 / b-adapt=2 / b-pyramid / bframe-bias=0 / rc-lookahead=90 / lookahead-slices=0 / scenecut=40 / radl=0 / no-splice / no-intra-refresh / ctu=64 / min-cu-size=8 / no-rect / no-amp / max-tu-size=32 / tu-inter-depth=1 / tu-intra-depth=1 / limit-tu=0 / rdoq-level=2 / dynamic-rd=0.00 / no-ssim-rd / signhide / no-tskip / nr-intra=0 / nr-inter=0 / no-constrained-intra / no-strong-intra-smoothing / max-merge=3 / limit-refs=3 / limit-modes / me=3 / subme=7 / merange=57 / temporal-mvp / weightp / weightb / no-analyze-src-pics / deblock=-3:-3 / sao / no-sao-non-deblock / rd=6 / no-early-skip / rskip / no-fast-intra / no-tskip-fast / no-cu-lossless / b-intra / no-splitrd-skip / rdpenalty=0 / psy-rd=1.70 / psy-rdoq=1.00 / no-rd-refine / no-lossless / cbqpoffs=0 / crqpoffs=0 / rc=crf / crf=19.5 / qcomp=0.60 / qpstep=4 / stats-write=0 / stats-read=0 / ipratio=1.40 / pbratio=1.30 / aq-mode=3 / aq-strength=1.00 / cutree / zone-count=0 / no-strict-cbr / qg-size=32 / no-rc-grain / qpmax=69 / qpmin=0 / no-const-vbv / sar=0 / overscan=0 / videoformat=5 / range=0 / colorprim=2 / transfer=2 / colormatrix=2 / chromaloc=0 / display-window=0 / max-cll=0,0 / min-luma=0 / max-luma=1023 / log2-max-poc-lsb=8 / vui-timing-info / vui-hrd-info / slices=1 / no-opt-qp-pps / no-opt-ref-list-length-pps / no-multi-pass-opt-rps / scenecut-bias=0.05 / no-opt-cu-delta-qp / aq-motion / no-hdr / no-hdr-opt / no-dhdr10-opt / no-idr-recovery-sei / analysis-reuse-level=5 / scale-factor=0 / refine-intra=0 / refine-inter=0 / refine-mv=0 / refine-ctu-distortion=0 / no-limit-sao / ctu-info=0 / no-lowpass-dct / refine-analysis-type=0 / copy-pic=1 / max-ausize-factor=1.0 / no-dynamic-refine / no-single-sei / no-hevc-aq / qp-adaptation-range=1.00
Default                                  : Yes
Forced                                   : No

Audio #1
ID                                       : 2
Format                                   : AC-3
Format/Info                              : Audio Coding 3
Codec ID                                 : A_AC3
Duration                                 : 1 h 51 min
Bit rate mode                            : Constant
Bit rate                                 : 192 kb/s
Channel(s)                               : 2 channels
Channel positions                        : Front: L R
Sampling rate                            : 48.0 kHz
Frame rate                               : 31.250 FPS (1536 SPF)
Bit depth                                : 16 bits
Compression mode                         : Lossy
Stream size                              : 153 MiB (3%)
Title                                    : БЗ - 2+2
Language                                 : Ukrainian
Service kind                             : Complete Main
Default                                  : Yes
Forced                                   : No

Audio #2
ID                                       : 3
Format                                   : AC-3
Format/Info                              : Audio Coding 3
Codec ID                                 : A_AC3
Duration                                 : 1 h 51 min
Bit rate mode                            : Constant
Bit rate                                 : 192 kb/s
Channel(s)                               : 2 channels
Channel positions                        : Front: L R
Sampling rate                            : 48.0 kHz
Frame rate                               : 31.250 FPS (1536 SPF)
Bit depth                                : 16 bits
Compression mode                         : Lossy
Stream size                              : 153 MiB (3%)
Title                                    : ПД - Line
Language                                 : Ukrainian
Service kind                             : Complete Main
Default                                  : No
Forced                                   : No

Audio #3
ID                                       : 4
Format                                   :
Format/Info                              : Advanced Audio Codec
Format profile                           : LC
Codec ID                                 : A_AAC-2
Duration                                 : 1 h 51 min
Bit rate                                 : 516 kb/s
Channel(s)                               : 6 channels
Channel positions                        : Front: L C R, Side: L R, LFE
Sampling rate                            : 48.0 kHz
Frame rate                               : 46.875 FPS (1024 SPF)
Compression mode                         : Lossy
Delay relative to video                  : 20 ms
Stream size                              : 411 MiB (8%)
Title                                    : Original
Language                                 : English
Default                                  : No
Forced                                   : No

Text #1
ID                                       : 5
Format                                   : UTF-8
Codec ID                                 : S_TEXT/UTF8
Codec ID/Info                            : UTF-8 Plain Text
Duration                                 : 1 h 50 min
Bit rate                                 : 67 b/s
Count of elements                        : 1366
Stream size                              : 54.9 KiB (0%)
Title                                    : Full
Language                                 : English
Default                                  : Yes
Forced                                   : No

Text #2
ID                                       : 6
Format                                   : UTF-8
Codec ID                                 : S_TEXT/UTF8
Codec ID/Info                            : UTF-8 Plain Text
Duration                                 : 1 h 50 min
Bit rate                                 : 72 b/s
Count of elements                        : 1519
Stream size                              : 58.6 KiB (0%)
Title                                    : SDH
Language                                 : English
Default                                  : No
Forced                                   : No

Text #3
ID                                       : 7
Format                                   : UTF-8
Codec ID                                 : S_TEXT/UTF8
Codec ID/Info                            : UTF-8 Plain Text
Duration                                 : 1 h 44 min
Bit rate                                 : 86 b/s
Count of elements                        : 1515
Stream size                              : 66.1 KiB (0%)
Title                                    : SDH-Colored
Language                                 : English
Default                                  : No
Forced                                   : No

Menu
00:00:00.000                             : en:Chapter 01
00:06:26.803                             : en:Chapter 02
00:09:57.430                             : en:Chapter 03
00:13:23.469                             : en:Chapter 04
00:17:10.946                             : en:Chapter 05
00:22:08.493                             : en:Chapter 06
00:27:46.039                             : en:Chapter 07
00:31:46.779                             : en:Chapter 08
00:36:56.255                             : en:Chapter 09
00:42:52.528                             : en:Chapter 10
00:45:09.832                             : en:Chapter 11
00:54:17.170                             : en:Chapter 12
00:58:33.092                             : en:Chapter 13
01:02:21.696                             : en:Chapter 14
01:04:29.782                             : en:Chapter 15
01:07:11.819                             : en:Chapter 16
01:12:58.749                             : en:Chapter 17
01:17:25.265                             : en:Chapter 18
01:24:59.928                             : en:Chapter 19
01:28:02.819                             : en:Chapter 20
01:31:05.293                             : en:Chapter 21
01:35:11.122                             : en:Chapter 22
01:44:14.957                             : en:Chapter 23
01:45:17.269                             : en:Chapter 24
Світлини





Джерело: &
Особиста оцінка: 0 - не дивився


 Трекер:    Зареєстрований   

Завантажити / скачати фільм українською



відео для новачків



 Зареєстрований:   2019-02-20 21:27
 Розмір:   4.86 GB 
 Оцінка фільму:   8/10 (Голосів: 7)
   
Інші релізи
   Малавіта (Malavita) / The Family (2013) 1080p 2xUkr/Eng | Sub Eng staf777  6 / 0   8.21 GB   2019-02-20 14:53 
   Малавіта (Malavita) / The Family (2013) AVC 2xUkr/Eng | Sub Eng patriot2305  6 / 0   2.55 GB   2019-02-20 10:05 
   Малавіта (Malavita) / The Family (2013) Remux 1080p 2xUkr/Eng | Sub Eng/Spa kryk-v.ya.  2 / 0   29.36 GB   2019-02-19 15:19 
   Малавіта (Malavita) / The Family (2013) 720р Ukr/Eng Sando7  1 / 0   4.09 GB   2013-12-08 00:06 
   Малавіта (Malavita) / The Family (2013) Ukr/Eng patriot2305  1 / 0   2.18 GB   2013-12-07 23:19 
   Малавіта (Malavita) / The Family (2013) patriot2305  5 / 0   1.44 GB   2013-12-07 16:45 
Anonymous 







2019-02-20 21:30  
Додав доріжку від 2+2 та повний пакет анг. сабів
Ваш часовий пояс: GMT + 2 Години

Нова тема   Відповісти