Знаки / Signs (2002) 1080p H.265 2xUkr/Eng | Sub Eng

Нові коментарі

Нова тема   Відповісти
Автор Повідомлення
-Star-Lord- 
VIP


З нами з: 09.08.18
Востаннє: 23.04.19
Повідомлень: 737

2019-02-13 10:44  
Знаки / Signs (2002) 1080p H.265 2xUkr/Eng | Sub Eng

Знаки / Signs (2002) 1080p H.265 2xUkr/Eng | Sub Eng


Жанр: фантастика, містика
Країна: США
Кінокомпанія: Touchstone Pictures, Blinding Edge Pictures, The Kennedy/Marshall Company
Режисер: М. Найт Ш'ямалан / M. Night Shyamalan
Актори: Мел Ґібсон / Mel Gibson, Хоакін Фенікс / Joaquin Phoenix, Рорі Калкін / Rory Culkin, Ебіґейл Бреслін / Abigail Breslin, Черрі Джонс / Cherry Jones та інші.

Сюжет:
Життя ніколи не радувало фермера Ґрема Гесса дивними подіями та пригодами. Рівно до того дня, коли він побачив, що його кукурудзяне поле поцятковане незбагненними гігантськими знаками з прим'ятих стебел. Жителі маленького містечка в Пенсільванії намагаються знайти розгадку цього феномена. Але ніхто не жадає знайти її так пристрасно, як сам фермер, адже фантастичні події, що відбуваються на його полі, кидають виклик усьому, що він знає і у що він вірить у цьому світі. Гесс починає особисте розслідування, навіть не здогадуючись, які неймовірні та водночас лякаючі відповіді отримає він на свої питання...

Тривалість: 01:46:30
Якість:
Відео:
кодек: H.265 (HEVC)
розмір кадру: 1920 x 1036
бітрейт: 6 338 кб/с
бітова глибина: 10 біт
Увага! Перед завантаженням переконайтесь, що ваш пристрій відтворення (та/або ПЗ) підтримує H.265 (HEVC)

Аудіо # 1:
мова: українська
переклад: багатоголосий закадровий
кодек: AC-3 2.0
бітрейт: 192 кб/с

Аудіо # 2:
мова: українська
переклад: багатоголосий закадровий
кодек: AC-3 2.0
бітрейт: 192 кб/с

Аудіо # 3:
мова: англійська
переклад: оригінал
кодек: AC-3 5.1
бітрейт: 640 кб/с

Субтитри # 1:
мова: англійська (Full),
тип: програмні (м'які)
формат: *.srt

Субтитри # 2:
мова: англійська (SDH),
тип: програмні (м'які)
формат: *.srt


Info
Код:
General
Unique ID                                : 93389584566488839996763726265340707397 (0x46422E03826504A6C511AC79A6B4C245)
Complete name                            : F:\Video\Signs (2002) 1080p H.265 [2xUKR_ENG].
Format                                   :
Format version                           : Version 4 / Version 2
File size                                : 5.48 GiB
Duration                                 : 1 h 46 min
Overall bit rate                         : 7 364 kb/s
Movie name                               : Signs (2002)
Encoded date                             : UTC 2019-02-13 07:20:36
Writing application                      : v20.0.0 ('I Am The Sun') 64-bit
Writing library                          : libebml v1.3.5 + v1.4.8
Cover                                    : Yes
Attachments                              : Cover.jpg

Video
ID                                       : 1
Format                                   : HEVC
Format/Info                              : High Efficiency Video Coding
Format profile                           : Main [email protected]@High
Codec ID                                 : V_MPEGH/ISO/HEVC
Duration                                 : 1 h 46 min
Bit rate                                 : 6 338 kb/s
Width                                    : 1 920 pixels
Height                                   : 1 036 pixels
Display aspect ratio                     : 1.85:1
Frame rate mode                          : Constant
Frame rate                               : 23.976 (24000/1001) FPS
Color space                              : YUV
Chroma subsampling                       : 4:2:0
Bit depth                                : 10 bits
Bits/(Pixel*Frame)                       : 0.133
Stream size                              : 4.72 GiB (86%)
Title                                    : Signs (2002)
Writing library                          : x265 2.9+9-f74003e88622:[Windows][GCC 8.2.0][64 bit] 10bit
Encoding settings                        : cpuid=1111039 / frame-threads=7 / numa-pools=6 / wpp / no-pmode / no-pme / no-psnr / no-ssim / log-level=3 / input-csp=1 / input-res=1920x1036 / interlace=0 / total-frames=0 / level-idc=41 / high-tier=1 / uhd-bd=0 / ref=4 / allow-non-conformance / no-repeat-headers / annexb / no-aud / no-hrd / info / hash=0 / no-temporal-layers / open-gop / min-keyint=24 / keyint=240 / gop-lookahead=0 / bframes=8 / b-adapt=2 / b-pyramid / bframe-bias=0 / rc-lookahead=20 / lookahead-slices=6 / scenecut=40 / radl=0 / no-intra-refresh / ctu=64 / min-cu-size=8 / rect / amp / max-tu-size=32 / tu-inter-depth=1 / tu-intra-depth=1 / limit-tu=0 / rdoq-level=0 / dynamic-rd=0.00 / no-ssim-rd / signhide / no-tskip / nr-intra=0 / nr-inter=0 / no-constrained-intra / no-strong-intra-smoothing / max-merge=2 / limit-refs=3 / no-limit-modes / me=3 / subme=7 / merange=57 / temporal-mvp / weightp / no-weightb / no-analyze-src-pics / deblock=-3:-3 / no-sao / no-sao-non-deblock / rd=3 / no-early-skip / rskip / no-fast-intra / no-tskip-fast / no-cu-lossless / no-b-intra / no-splitrd-skip / rdpenalty=0 / psy-rd=2.00 / psy-rdoq=0.00 / no-rd-refine / no-lossless / cbqpoffs=0 / crqpoffs=0 / rc=crf / crf=17.5 / qcomp=0.70 / qpstep=4 / stats-write=0 / stats-read=0 / vbv-maxrate=50000 / vbv-bufsize=50000 / vbv-init=0.9 / crf-max=30.0 / crf-min=0.0 / ipratio=1.40 / pbratio=1.30 / aq-mode=1 / aq-strength=1.00 / cutree / zone-count=0 / no-strict-cbr / qg-size=32 / no-rc-grain / qpmax=69 / qpmin=0 / no-const-vbv / sar=1 / overscan=0 / videoformat=5 / range=0 / colorprim=1 / transfer=1 / colormatrix=1 / chromaloc=0 / display-window=0 / max-cll=0,0 / min-luma=0 / max-luma=1023 / log2-max-poc-lsb=8 / vui-timing-info / vui-hrd-info / slices=1 / no-opt-qp-pps / no-opt-ref-list-length-pps / no-multi-pass-opt-rps / scenecut-bias=0.05 / no-opt-cu-delta-qp / no-aq-motion / no-hdr / no-hdr-opt / no-dhdr10-opt / no-idr-recovery-sei / analysis-reuse-level=5 / scale-factor=0 / refine-intra=0 / refine-inter=0 / refine-mv=0 / no-limit-sao / ctu-info=0 / no-lowpass-dct / refine-mv-type=0 / copy-pic=1 / max-ausize-factor=1.0 / no-dynamic-refine / no-single-sei
Language                                 : English
Default                                  : Yes
Forced                                   : No
Color range                              : Limited
Color primaries                          : BT.709
Transfer characteristics                 : BT.709
Matrix coefficients                      : BT.709

Audio #1
ID                                       : 2
Format                                   : AC-3
Format/Info                              : Audio Coding 3
Codec ID                                 : A_AC3
Duration                                 : 1 h 46 min
Bit rate mode                            : Constant
Bit rate                                 : 192 kb/s
Channel(s)                               : 2 channels
Channel positions                        : Front: L R
Sampling rate                            : 48.0 kHz
Frame rate                               : 31.250 FPS (1536 SPF)
Bit depth                                : 16 bits
Compression mode                         : Lossy
Stream size                              : 146 MiB (3%)
Title                                    : БЗ - ICTV
Language                                 : Ukrainian
Service kind                             : Complete Main
Default                                  : Yes
Forced                                   : No

Audio #2
ID                                       : 3
Format                                   : AC-3
Format/Info                              : Audio Coding 3
Codec ID                                 : A_AC3
Duration                                 : 1 h 46 min
Bit rate mode                            : Constant
Bit rate                                 : 192 kb/s
Channel(s)                               : 2 channels
Channel positions                        : Front: L R
Sampling rate                            : 48.0 kHz
Frame rate                               : 31.250 FPS (1536 SPF)
Bit depth                                : 16 bits
Compression mode                         : Lossy
Stream size                              : 146 MiB (3%)
Title                                    : БЗ - 1+1
Language                                 : Ukrainian
Service kind                             : Complete Main
Default                                  : No
Forced                                   : No

Audio #3
ID                                       : 4
Format                                   : AC-3
Format/Info                              : Audio Coding 3
Codec ID                                 : A_AC3
Duration                                 : 1 h 46 min
Bit rate mode                            : Constant
Bit rate                                 : 640 kb/s
Channel(s)                               : 6 channels
Channel positions                        : Front: L C R, Side: L R, LFE
Sampling rate                            : 48.0 kHz
Frame rate                               : 31.250 FPS (1536 SPF)
Bit depth                                : 16 bits
Compression mode                         : Lossy
Stream size                              : 488 MiB (9%)
Title                                    : Original
Language                                 : English
Service kind                             : Complete Main
Default                                  : No
Forced                                   : No

Text #1
ID                                       : 5
Format                                   : UTF-8
Codec ID                                 : S_TEXT/UTF8
Codec ID/Info                            : UTF-8 Plain Text
Duration                                 : 1 h 36 min
Bit rate                                 : 42 b/s
Count of elements                        : 830
Stream size                              : 29.6 KiB (0%)
Title                                    : Full
Language                                 : English
Default                                  : Yes
Forced                                   : No

Text #2
ID                                       : 6
Format                                   : UTF-8
Codec ID                                 : S_TEXT/UTF8
Codec ID/Info                            : UTF-8 Plain Text
Duration                                 : 1 h 36 min
Bit rate                                 : 44 b/s
Count of elements                        : 1053
Stream size                              : 31.4 KiB (0%)
Title                                    : SDH
Language                                 : English
Default                                  : No
Forced                                   : No

Menu
00:00:00.000                             : :Opening
00:02:05.042                             : :The Crops
00:07:25.278                             : :Contaminated Water
00:11:51.544                             : :A Monster Outside
00:20:33.566                             : :Breaking News
00:25:38.537                             : :Probing
00:29:14.753                             : :"Is That Him?"
00:30:37.461                             : :Bo's Baby Monitor
00:35:19.743                             : :Evidence
00:39:29.367                             : :Fourteen
00:48:51.262                             : :Research
00:53:03.972                             : :Ray's Confessional
00:57:17.392                             : :Disturbing Footage
00:58:52.529                             : :One Trapped in the Pantry
01:05:46.025                             : :Invasion
01:09:30.166                             : :Family Meal
01:12:41.357                             : :"It's Happening"
01:18:44.970                             : :Locked in the Basement
01:25:57.402                             : :Distant Memory
01:35:49.202                             : :Swing Away
01:39:31.465                             : :Winter/Closing Credits
Світлини





Джерело: &
Особиста оцінка: 0 - не дивився


Срібний реліз (на рейтинг впливає 50% завантаженого)
 Трекер:    Зареєстрований   

Завантажити / скачати фільм українською



відео для новачків



 Зареєстрований:   2019-02-13 10:44
 Розмір:   5.48 GB 
 Оцінка фільму:   10/10 (Голосів: 2)
   
Інші релізи
   Знаки / Signs (2002) Remux 1080p 2хUkr/Eng | Sub Eng kryk-v.ya.  4 / 0   20.55 GB   2019-04-06 20:13 
   Знаки / Signs (2002) 720p 2xUkr/Eng | Sub Eng Bod_zik99  2 / 0   4.69 GB   2016-01-18 15:49 
   Знаки / Signs (2002) 2хUkr omm  7 / 0   1.48 GB   2014-08-21 09:44 
   Знаки / Signs (2002) 1080p Ukr/Eng | sub Eng igor911  4 / 0   7.62 GB   2013-05-31 21:44 
   Знаки / Signs (2002) Ukr/Eng | sub Eng JACKUS  4 / 0   2.19 GB   2010-07-10 21:50 
Ваш часовий пояс: GMT + 2 Години

Нова тема   Відповісти