Цвинтар домашніх тварин / Pet Sematary (1989) [EUR] [30th Anniversary Edition] 1080p H.265 Ukr/Eng | Sub Eng

Нові коментарі

Нова тема   Відповісти
Останній раз роздавалося MakRA (2020-09-30)
Автор Повідомлення
Anonymous 







2019-02-13 10:37  
Цвинтар домашніх тварин / Pet Sematary (1989) [EUR] [30th Anniversary Edition] 1080p H.265 Ukr/Eng | Sub Eng

Цвинтар домашніх тварин / Pet Sematary (1989) [EUR] [30th Anniversary Edition] 1080p H.265 Ukr/Eng | Sub Eng


Жанр: жахи, трилер, фентезі
Країна: США
Кінокомпанія: Paramount Pictures, Laurel Productions
Режисер: Мері Ламберт
Актори: Дейл Мідкіф, Фред Гуін, Деніз Кросбі, Бред Грінквіст , Майкл Ломбард , Міко Хьюз , Блейз Бердаль , Сьюзен Бломмаєрт , Тара Кларк , Мері Луїз Уїлсон

Сюжет:
Доктор Луїс Крід переїжджає до маленького містечка, де на його сім'ю чекає великий будинок, а самого Луїса - скромна посада лікаря місцевого коледжу. Нове, просторе помешкання подружжя Крід розташоване на краю густого, величного лісу. А у самому лісі - маленьке й похмуре кладовище, де місцеві жителі ховають своїх домашніх тварин.

Тривалість: 01:42:42
Якість:

Відео:
кодек: H.265 (HEVC)
розмір кадру: 1920 x 1080
бітрейт: 10 477 кб/с
бітова глибина: 10 біт

Увага! Перед завантаженням переконайтесь, що ваш пристрій відтворення (та/або ПЗ) підтримує H.265 (HEVC)

Аудіо # 1:
мова: українська
переклад: багатоголосий закадровий
кодек: AC-3 2.0
бітрейт: 192 кб/с

Аудіо # 2:
мова: англійська
переклад: оригінал
кодек: 5.1
бітрейт: 1510 кб/с

Субтитри # 1-2: (Full, SDH)
мова: англійська
тип: програмні (м'які)
формат: *.srt


Info
Код:
General
Unique ID                                : 238940601639315451168814234190709813585 (0xB3C24934DA15EC6B88C2BC2035BC7151)
Complete name                            : Pet Sematary (1989) 1080p H.265 [UKR_ENG] [Hurtom].
Format                                   :
Format version                           : Version 4
File size                                : 8.74 GiB
Duration                                 : 1 h 42 min
Overall bit rate                         : 12.2 Mb/s
Movie name                               : Цвинтар домашніх тварин / Pet Sematary (1989)
Encoded date                             : UTC 2020-03-12 21:01:12
Writing application                      : v20.0.0 ('I Am The Sun') 64-bit
Writing library                          : libebml v1.3.5 + v1.4.8
Cover                                    : Yes
Attachments                              : Cover.jpg

Video
ID                                       : 1
Format                                   : HEVC
Format/Info                              : High Efficiency Video Coding
Format profile                           : Main [email protected]@High
Codec ID                                 : V_MPEGH/ISO/HEVC
Duration                                 : 1 h 42 min
Bit rate                                 : 10.5 Mb/s
Width                                    : 1 920 pixels
Height                                   : 1 080 pixels
Display aspect ratio                     : 16:9
Frame rate mode                          : Constant
Frame rate                               : 23.976 (23976/1000) FPS
Original frame rate                      : 23.976 (24000/1001) FPS
Color space                              : YUV
Chroma subsampling                       : 4:2:0
Bit depth                                : 10 bits
Bits/(Pixel*Frame)                       : 0.211
Stream size                              : 7.52 GiB (86%)
Title                                    : Цвинтар домашніх тварин / Pet Sematary (1989)
Writing library                          : x265 3.2.1+1-b5c86a64bbbe:[Windows][MSVC 1923][64 bit] 10bit
Encoding settings                        : cpuid=1111039 / frame-threads=3 / numa-pools=12 / wpp / no-pmode / no-pme / no-psnr / no-ssim / log-level=2 / input-csp=1 / input-res=1920x1080 / interlace=0 / total-frames=143165 / level-idc=41 / high-tier=1 / uhd-bd=0 / ref=5 / no-allow-non-conformance / no-repeat-headers / annexb / no-aud / no-hrd / info / hash=0 / no-temporal-layers / open-gop / min-keyint=23 / keyint=240 / gop-lookahead=0 / bframes=8 / b-adapt=2 / b-pyramid / bframe-bias=0 / rc-lookahead=60 / lookahead-slices=4 / scenecut=40 / radl=0 / no-splice / no-intra-refresh / ctu=32 / min-cu-size=8 / rect / amp / max-tu-size=32 / tu-inter-depth=4 / tu-intra-depth=4 / limit-tu=1 / rdoq-level=2 / dynamic-rd=0.00 / no-ssim-rd / signhide / no-tskip / nr-intra=0 / nr-inter=0 / no-constrained-intra / no-strong-intra-smoothing / max-merge=4 / limit-refs=2 / limit-modes / me=3 / subme=7 / merange=57 / temporal-mvp / no-hme / weightp / weightb / no-analyze-src-pics / deblock=-3:-3 / no-sao / no-sao-non-deblock / rd=6 / selective-sao=0 / no-early-skip / no-rskip / no-fast-intra / no-tskip-fast / no-cu-lossless / no-b-intra / no-splitrd-skip / rdpenalty=0 / psy-rd=2.00 / psy-rdoq=1.00 / no-rd-refine / no-lossless / cbqpoffs=0 / crqpoffs=0 / rc=crf / crf=20.0 / qcomp=0.60 / qpstep=4 / stats-write=0 / stats-read=0 / vbv-maxrate=50000 / vbv-bufsize=50000 / vbv-init=0.9 / crf-max=0.0 / crf-min=0.0 / ipratio=1.40 / pbratio=1.30 / aq-mode=1 / aq-strength=1.00 / no-cutree / zone-count=0 / no-strict-cbr / qg-size=32 / no-rc-grain / qpmax=69 / qpmin=0 / no-const-vbv / sar=1 / overscan=0 / videoformat=5 / range=0 / colorprim=1 / transfer=1 / colormatrix=1 / chromaloc=0 / display-window=0 / cll=0,0 / min-luma=0 / max-luma=1023 / log2-max-poc-lsb=8 / vui-timing-info / vui-hrd-info / slices=1 / no-opt-qp-pps / no-opt-ref-list-length-pps / no-multi-pass-opt-rps / scenecut-bias=0.05 / no-opt-cu-delta-qp / no-aq-motion / no-hdr / no-hdr-opt / no-dhdr10-opt / no-idr-recovery-sei / analysis-reuse-level=5 / scale-factor=0 / refine-intra=0 / refine-inter=0 / refine-mv=1 / refine-ctu-distortion=0 / no-limit-sao / ctu-info=0 / no-lowpass-dct / refine-analysis-type=0 / copy-pic=1 / max-ausize-factor=1.0 / no-dynamic-refine / no-single-sei / no-hevc-aq / no-svt / no-field / qp-adaptation-range=1.00
Default                                  : Yes
Forced                                   : No
Color range                              : Limited
Color primaries                          : BT.709
Transfer characteristics                 : BT.709
Matrix coefficients                      : BT.709

Audio #1
ID                                       : 2
Format                                   : AC-3
Format/Info                              : Audio Coding 3
Commercial name                          : Dolby Digital
Codec ID                                 : A_AC3
Duration                                 : 1 h 42 min
Bit rate mode                            : Constant
Bit rate                                 : 192 kb/s
Channel(s)                               : 2 channels
Channel layout                           : L R
Sampling rate                            : 48.0 kHz
Frame rate                               : 31.250 FPS (1536 SPF)
Compression mode                         : Lossy
Delay relative to video                  : 28 ms
Stream size                              : 141 MiB (2%)
Title                                    : / 2.0 Ch / 192 kbps / БЗ / K1
Language                                 : Ukrainian
Service kind                             : Complete Main
Default                                  : Yes
Forced                                   : Yes

Audio #2
ID                                       : 3
Format                                   :
Format/Info                              : Digital Theater Systems
Codec ID                                 : A_DTS
Duration                                 : 1 h 42 min
Bit rate mode                            : Constant
Bit rate                                 : 1 509 kb/s
Channel(s)                               : 6 channels
Channel layout                           : C L R Ls Rs LFE
Sampling rate                            : 48.0 kHz
Frame rate                               : 93.750 FPS (512 SPF)
Bit depth                                : 24 bits
Compression mode                         : Lossy
Delay relative to video                  : 7 ms
Stream size                              : 1.08 GiB (12%)
Title                                    : / 5.1 Ch / 1509 kbps / Original
Language                                 : English
Default                                  : No
Forced                                   : No

Text #1
ID                                       : 4
Format                                   : UTF-8
Codec ID                                 : S_TEXT/UTF8
Codec ID/Info                            : UTF-8 Plain Text
Duration                                 : 1 h 38 min
Bit rate                                 : 34 b/s
Count of elements                        : 851
Stream size                              : 25.0 KiB (0%)
Title                                    : Full
Language                                 : English
Default                                  : Yes
Forced                                   : No

Text #2
ID                                       : 5
Format                                   : UTF-8
Codec ID                                 : S_TEXT/UTF8
Codec ID/Info                            : UTF-8 Plain Text
Duration                                 : 1 h 39 min
Bit rate                                 : 42 b/s
Count of elements                        : 1048
Stream size                              : 31.0 KiB (0%)
Title                                    : SDH
Language                                 : English
Default                                  : No
Forced                                   : No

Menu
00:00:00.000                             : en:Main Title
00:03:04.184                             : en:One Mean Road
00:09:57.889                             : en:Where the Dead Speak
00:17:25.127                             : en:Hit By a Truck
00:25:07.256                             : en:Indian Burial Ground
00:33:45.941                             : en:Back From the Dead
00:40:50.531                             : en:Missy's Pain
00:44:18.698                             : en:A Dirty Secret
00:47:38.522                             : en:"Don't Let Him Go on the Road"
00:53:32.543                             : en:Sometimes Dead Is Better
01:00:08.939                             : en:The Barrier Is Not Meant to Be Crossed
01:09:11.939                             : en:Don't Stop and Don't Look Down
01:16:45.100                             : en:Hide-and-Go-Seek
01:21:37.976                             : en:"I Brought You Something, Mommy"
01:26:33.063                             : en:An Awful Good Time
01:28:28.470                             : en:Play Dead
01:30:20.248                             : en:"Now I Want to Play with You..."
01:35:37.899                             : en:The Soil of a Man's Heart
01:39:35.595                             : en:End Credits
Світлини




Джерело: &
Особиста оцінка: 0 - не дивився


Срібний реліз (на рейтинг впливає 50% завантаженого)
 Трекер:    Зареєстрований   

Завантажити / скачати фільм українською



відео для новачків



 Зареєстрований:   2020-03-13 00:22
 Розмір:   8.74 GB 
 Оцінка фільму:   10/10 (Голосів: 6)
   
Інші релізи
respect14 
VIP


З нами з: 26.01.11
Востаннє: 30.09.20
Повідомлень: 593

2019-02-13 15:53  
По Кінгу?
Anonymous 







2019-02-13 15:58  
respect14 написано:
По Кінгу?

Так

krabapka 
Свій


З нами з: 15.08.15
Востаннє: 30.09.20
Повідомлень: 97

2019-02-13 16:11  
Дякую. Треба, нарешті, подивитися.
Anonymous 







2019-02-13 16:31  
krabapka
Будь ласка)

Anonymous 







2020-03-13 00:23  
Якісніший відеоряд.
Ваш часовий пояс: GMT + 2 Години

Нова тема   Відповісти