Доґвіль / Dogville (2003) 1080p H.265 Ukr/Eng | Sub Eng

Нові коментарі

Нова тема   Відповісти
Автор Повідомлення
-Star-Lord- 
VIP


З нами з: 09.08.18
Востаннє: 25.04.19
Повідомлень: 737

2019-02-13 10:34  
Доґвіль / Dogville (2003) 1080p H.265 Ukr/Eng | Sub Eng

Доґвіль / Dogville (2003) 1080p H.265 Ukr/Eng | Sub Eng


Жанр: драма
Країна: Данія, Швеція, Великобританія, Франція, Німеччина, Голландія, Норвегія, Фінляндія, Італія
Кінокомпанія: Zentropa Entertainments, Isabella Films B.V., Something Else B.V.
Режисер: Ларс фон Трієр / Lars von Trier
Актори: Ніколь Кідман / Nicole Kidman, Пол Беттані / Paul Bettany, Гарріет Андерссон / Harriet Andersson, Патриція Кларксон / Patricia Clarkson, Бен Ґазара / Ben Gazzara, Філіп Бейкер Голл / Philip Baker Hall, Джеремі Девіс / Jeremy Davies, Хлоя Севіні / Chloë Sevigny, Стеллан Скарсґаард / Stellan Skarsgård, Лорен Бекелл / Lauren Bacall, Джеймс Каан / James Caan, Джон Гарт / John Hurt

Сюжет:
Дія фільму відбувається у 1930-ті роки у США (часи Великої депресії). Режисер використовує надзвичайно мінімальний набір декорацій, щоб висвітлити історію Ґрейс, утікачки від бандитів, котра прибуває до маленького містечка Доґвіль, і знаходить там притулок, за який розплачується фізичною працею.

Тривалість: 02:57:58
Якість:
Відео:
кодек: H.265 (HEVC)
розмір кадру: 1908 x 816
бітрейт: 4 250 кб/с
бітова глибина: 10 біт
Увага! Перед завантаженням переконайтесь, що ваш пристрій відтворення (та/або ПЗ) підтримує H.265 (HEVC)

Аудіо # 1:
мова: українська
переклад: багатоголосий закадровий
кодек: AC-3 2.0
бітрейт: 192 кб/с

Аудіо # 2:
мова: англійська
переклад: оригінал
кодек: E-AC-3 2.0
бітрейт: 224 кб/с

Субтитри # 1:
мова: англійська (Full),
тип: програмні (м'які)
формат: *.srt

Субтитри # 2:
мова: англійська (SDH),
тип: програмні (м'які)
формат: *.srt


Info
Код:
General
Unique ID                                : 87082999805681075292535787315181798825 (0x41839360E5AA763B3086D6072C8245A9)
Complete name                            : F:\Video\Dogville (2003) 1080p H.265 [UKR_ENG].
Format                                   :
Format version                           : Version 4 / Version 2
File size                                : 5.80 GiB
Duration                                 : 2 h 57 min
Overall bit rate                         : 4 669 kb/s
Movie name                               : Dogville (2003)
Encoded date                             : UTC 2019-02-12 18:42:35
Writing application                      : v20.0.0 ('I Am The Sun') 64-bit
Writing library                          : libebml v1.3.5 + v1.4.8
Cover                                    : Yes
Attachments                              : Cover.jpg

Video
ID                                       : 1
Format                                   : HEVC
Format/Info                              : High Efficiency Video Coding
Format profile                           : Main [email protected]@Main
Codec ID                                 : V_MPEGH/ISO/HEVC
Duration                                 : 2 h 57 min
Bit rate                                 : 4 251 kb/s
Width                                    : 1 908 pixels
Height                                   : 816 pixels
Display aspect ratio                     : 2.35:1
Frame rate mode                          : Constant
Frame rate                               : 23.976 (24000/1001) FPS
Color space                              : YUV
Chroma subsampling                       : 4:2:0
Bit depth                                : 10 bits
Bits/(Pixel*Frame)                       : 0.114
Stream size                              : 5.28 GiB (91%)
Title                                    : Dogville (2003)
Writing library                          : x265 3.0+1-ed72af837053:[Windows][GCC 8.2.0][64 bit] 10bit
Encoding settings                        : cpuid=1111039 / frame-threads=3 / numa-pools=8 / wpp / no-pmode / no-pme / no-psnr / no-ssim / log-level=2 / input-csp=1 / input-res=1908x816 / interlace=0 / total-frames=256026 / level-idc=0 / high-tier=1 / uhd-bd=0 / ref=4 / no-allow-non-conformance / no-repeat-headers / annexb / no-aud / no-hrd / info / hash=0 / no-temporal-layers / open-gop / min-keyint=23 / keyint=250 / gop-lookahead=0 / bframes=8 / b-adapt=2 / b-pyramid / bframe-bias=0 / rc-lookahead=80 / lookahead-slices=4 / scenecut=40 / radl=0 / no-splice / no-intra-refresh / ctu=64 / min-cu-size=8 / no-rect / no-amp / max-tu-size=32 / tu-inter-depth=1 / tu-intra-depth=1 / limit-tu=0 / rdoq-level=2 / dynamic-rd=0.00 / no-ssim-rd / signhide / no-tskip / nr-intra=0 / nr-inter=0 / no-constrained-intra / no-strong-intra-smoothing / max-merge=3 / limit-refs=3 / limit-modes / me=3 / subme=5 / merange=57 / temporal-mvp / weightp / no-weightb / no-analyze-src-pics / deblock=-3:-3 / no-sao / no-sao-non-deblock / rd=4 / no-early-skip / rskip / no-fast-intra / no-tskip-fast / no-cu-lossless / no-b-intra / no-splitrd-skip / rdpenalty=0 / psy-rd=2.00 / psy-rdoq=1.00 / no-rd-refine / no-lossless / cbqpoffs=0 / crqpoffs=0 / rc=abr / bitrate=4250 / qcomp=0.60 / qpstep=4 / stats-write=0 / stats-read=2 / cplxblur=20.0 / qblur=0.5 / ipratio=1.40 / pbratio=1.30 / aq-mode=3 / aq-strength=1.00 / cutree / zone-count=0 / no-strict-cbr / qg-size=32 / no-rc-grain / qpmax=69 / qpmin=0 / no-const-vbv / sar=0 / overscan=0 / videoformat=5 / range=0 / colorprim=2 / transfer=2 / colormatrix=2 / chromaloc=0 / display-window=0 / max-cll=0,0 / min-luma=0 / max-luma=1023 / log2-max-poc-lsb=8 / vui-timing-info / vui-hrd-info / slices=1 / no-opt-qp-pps / no-opt-ref-list-length-pps / no-multi-pass-opt-rps / scenecut-bias=0.05 / no-opt-cu-delta-qp / no-aq-motion / no-hdr / no-hdr-opt / no-dhdr10-opt / no-idr-recovery-sei / analysis-reuse-level=5 / scale-factor=0 / refine-intra=0 / refine-inter=0 / refine-mv=0 / refine-ctu-distortion=0 / no-limit-sao / ctu-info=0 / no-lowpass-dct / refine-analysis-type=0 / copy-pic=1 / max-ausize-factor=1.0 / no-dynamic-refine / no-single-sei / no-hevc-aq / qp-adaptation-range=1.00
Default                                  : Yes
Forced                                   : No

Audio #1
ID                                       : 2
Format                                   : AC-3
Format/Info                              : Audio Coding 3
Codec ID                                 : A_AC3
Duration                                 : 2 h 57 min
Bit rate mode                            : Constant
Bit rate                                 : 192 kb/s
Channel(s)                               : 2 channels
Channel positions                        : Front: L R
Sampling rate                            : 48.0 kHz
Frame rate                               : 31.250 FPS (1536 SPF)
Bit depth                                : 16 bits
Compression mode                         : Lossy
Delay relative to video                  : 1 s 300 ms
Stream size                              : 244 MiB (4%)
Title                                    : БЗ - 1+1
Language                                 : Ukrainian
Service kind                             : Complete Main
Default                                  : Yes
Forced                                   : Yes

Audio #2
ID                                       : 3
Format                                   : E-AC-3
Format/Info                              : Enhanced Audio Coding 3
Codec ID                                 : A_EAC3
Duration                                 : 2 h 57 min
Bit rate mode                            : Constant
Bit rate                                 : 224 kb/s
Channel(s)                               : 2 channels
Channel positions                        : Front: L R
Sampling rate                            : 48.0 kHz
Frame rate                               : 187.500 FPS (256 SPF)
Compression mode                         : Lossy
Stream size                              : 285 MiB (5%)
Title                                    : Original
Language                                 : English
Service kind                             : Complete Main
Default                                  : No
Forced                                   : No

Text #1
ID                                       : 4
Format                                   : UTF-8
Codec ID                                 : S_TEXT/UTF8
Codec ID/Info                            : UTF-8 Plain Text
Duration                                 : 2 h 51 min
Bit rate                                 : 72 b/s
Count of elements                        : 1804
Stream size                              : 90.7 KiB (0%)
Title                                    : Full
Language                                 : English
Default                                  : No
Forced                                   : No

Text #2
ID                                       : 5
Format                                   : UTF-8
Codec ID                                 : S_TEXT/UTF8
Codec ID/Info                            : UTF-8 Plain Text
Duration                                 : 2 h 51 min
Bit rate                                 : 72 b/s
Count of elements                        : 1805
Stream size                              : 91.2 KiB (0%)
Title                                    : SDH
Language                                 : English
Default                                  : No
Forced                                   : No
Світлини





Джерело: &
Особиста оцінка: 0 - не дивився


Срібний реліз (на рейтинг впливає 50% завантаженого)
 Трекер:    Зареєстрований   

Завантажити / скачати фільм українською



відео для новачків



 Зареєстрований:   2019-02-13 10:34
 Розмір:   5.8 GB 
 Оцінка фільму:   9.7/10 (Голосів: 3)
   
Інші релізи
   Доґвіль / Dogville (2003) AVC Ukr/Eng | Sub Eng Загора  5 / 0   3.11 GB   2016-02-26 23:31 
   Доґвіль / Dogville (2003) 720p Ukr/Eng | Sub Eng Загора  5 / 0   8.18 GB   2016-02-26 23:27 
   Доґвіль / Dogville (2003) Ukr/Eng | Sub Eng karvai0  4 / 0   2.9 GB   2014-06-04 11:39 
vash1 
Поважний учасник


З нами з: 16.03.16
Востаннє: 24.04.19
Повідомлень: 187

2019-02-15 16:34  
дивився в 2009. справило враження.
кіно яке вже 10 років не можуть зарелізити на blu-ray.. дякую!

Ваш часовий пояс: GMT + 2 Години

Нова тема   Відповісти