Капоте / Capote (2005) 1080p H.265 2xUkr/Eng | Sub Eng

Нові коментарі

Нова тема   Відповісти
Автор Повідомлення
-Star-Lord- 
VIP


З нами з: 09.08.18
Востаннє: 19.04.19
Повідомлень: 736

2019-02-13 10:29  
Капоте / Capote (2005) 1080p H.265 2xUkr/Eng | Sub Eng

Капоте / Capote (2005) 1080p H.265 2xUkr/Eng | Sub Eng


Жанр: біографічний, драма, кримінальний
Країна: США, Канада
Кінокомпанія: Sony Pictures Classics, A-Line Pictures, Cooper's Town Productions
Режисер: Беннетт Міллер
Актори: Філіп Сеймур Гоффман, Кетрін Кінер, Кліфтон Коллінз мол., Еллі Мікельсон, Келсі Стефенсон, Крейґ Арчибальд, Бронвен Коулмен, Кейт Шиндл, Девід Вілсон Барнс, Майкл Дж. Берг, Квесі Амеяу, Кріс Купер

Сюжет:
У 1959 році відомому письменникові Трумену Капоте потрапила на очі газетна замітка, яка круто змінила його життя та літературну кар'єру. У ній йшлося про бійню в Канзасі, коли двоє бандитів з неймовірною жорстокістю розправилися з сім'єю з чотирьох чоловік.

Вражений, Капоте вирішив особисто вивчити усі матеріали, щоб зрозуміти, як таке могло статися - і написати про це. Автор романтичних і ніжних книг «Голос трави» та «Сніданок у Тіффані» не підозрював, що просте журналістське розслідування поглине кілька років його життя і призведе до створення одного з найпотужніших психологічних трилерів в історії - «Звичайні вбивства».
«Капоте» - біографічна драма Беннетта Міллера про життя американського романіста Трумена Капоте. Фільм був номінований як найкраща картина на «Оскар» у 2006 році, Філіп Сеймур Гоффман став переможцем у номінації «найкраща чоловіча роль».

Тривалість: 01:54:17
Якість:
Відео:
кодек: H.265 (HEVC)
розмір кадру: 1920 x 816
бітрейт: 4 497 кб/с
бітова глибина: 10 біт
Увага! Перед завантаженням переконайтесь, що ваш пристрій відтворення (та/або ПЗ) підтримує H.265 (HEVC)

Аудіо # 1:
мова: українська
переклад: багатоголосий закадровий
кодек: AC-3 2.0
бітрейт: 192 кб/с

Аудіо # 2:
мова: українська
переклад: багатоголосий закадровий (З 5.1)
кодек: AC-3 2.0
бітрейт: 192 кб/с

Аудіо # 3:
мова: англійська
переклад: оригінал
кодек: 5.1
бітрейт: 433 кб/с

Субтитри # 1:
мова: англійська (Full),
тип: програмні (м'які)
формат: *.srt


Info
Код:
General
Unique ID                                : 240619953484406246144778528354655549948 (0xB505B7A51E802F3E64E305D636D039FC)
Complete name                            : F:\Video\Capote (2005) 1080p H.265 [2xUKR_ENG].
Format                                   :
Format version                           : Version 4 / Version 2
File size                                : 4.24 GiB
Duration                                 : 1 h 54 min
Overall bit rate                         : 5 317 kb/s
Movie name                               : Capote (2005)
Encoded date                             : UTC 2019-02-12 18:50:38
Writing application                      : v20.0.0 ('I Am The Sun') 64-bit
Writing library                          : libebml v1.3.5 + v1.4.8
Cover                                    : Yes
Attachments                              : cover.jpg

Video
ID                                       : 1
Format                                   : HEVC
Format/Info                              : High Efficiency Video Coding
Format profile                           : Main [email protected]@Main
Codec ID                                 : V_MPEGH/ISO/HEVC
Duration                                 : 1 h 54 min
Bit rate                                 : 4 497 kb/s
Width                                    : 1 920 pixels
Height                                   : 816 pixels
Display aspect ratio                     : 2.35:1
Frame rate mode                          : Constant
Frame rate                               : 23.976 (24000/1001) FPS
Color space                              : YUV
Chroma subsampling                       : 4:2:0
Bit depth                                : 10 bits
Bits/(Pixel*Frame)                       : 0.120
Stream size                              : 3.59 GiB (85%)
Title                                    : Capote (2005)
Writing library                          : x265 3.0+1-ed72af837053:[Windows][GCC 8.2.0][64 bit] 10bit
Encoding settings                        : cpuid=1111039 / frame-threads=3 / numa-pools=8 / wpp / no-pmode / no-pme / no-psnr / no-ssim / log-level=2 / input-csp=1 / input-res=1920x816 / interlace=0 / total-frames=164420 / level-idc=0 / high-tier=1 / uhd-bd=0 / ref=4 / no-allow-non-conformance / no-repeat-headers / annexb / no-aud / no-hrd / info / hash=0 / no-temporal-layers / open-gop / min-keyint=23 / keyint=250 / gop-lookahead=0 / bframes=8 / b-adapt=2 / b-pyramid / bframe-bias=0 / rc-lookahead=80 / lookahead-slices=4 / scenecut=40 / radl=0 / no-splice / no-intra-refresh / ctu=64 / min-cu-size=8 / no-rect / no-amp / max-tu-size=32 / tu-inter-depth=1 / tu-intra-depth=1 / limit-tu=0 / rdoq-level=2 / dynamic-rd=0.00 / no-ssim-rd / signhide / no-tskip / nr-intra=0 / nr-inter=0 / no-constrained-intra / no-strong-intra-smoothing / max-merge=3 / limit-refs=3 / limit-modes / me=3 / subme=5 / merange=57 / temporal-mvp / weightp / no-weightb / no-analyze-src-pics / deblock=-3:-3 / no-sao / no-sao-non-deblock / rd=4 / no-early-skip / rskip / no-fast-intra / no-tskip-fast / no-cu-lossless / no-b-intra / no-splitrd-skip / rdpenalty=0 / psy-rd=2.00 / psy-rdoq=1.00 / no-rd-refine / no-lossless / cbqpoffs=0 / crqpoffs=0 / rc=abr / bitrate=4500 / qcomp=0.60 / qpstep=4 / stats-write=0 / stats-read=2 / cplxblur=20.0 / qblur=0.5 / ipratio=1.40 / pbratio=1.30 / aq-mode=3 / aq-strength=1.00 / cutree / zone-count=0 / no-strict-cbr / qg-size=32 / no-rc-grain / qpmax=69 / qpmin=0 / no-const-vbv / sar=0 / overscan=0 / videoformat=5 / range=0 / colorprim=2 / transfer=2 / colormatrix=2 / chromaloc=0 / display-window=0 / max-cll=0,0 / min-luma=0 / max-luma=1023 / log2-max-poc-lsb=8 / vui-timing-info / vui-hrd-info / slices=1 / no-opt-qp-pps / no-opt-ref-list-length-pps / no-multi-pass-opt-rps / scenecut-bias=0.05 / no-opt-cu-delta-qp / no-aq-motion / no-hdr / no-hdr-opt / no-dhdr10-opt / no-idr-recovery-sei / analysis-reuse-level=5 / scale-factor=0 / refine-intra=0 / refine-inter=0 / refine-mv=0 / refine-ctu-distortion=0 / no-limit-sao / ctu-info=0 / no-lowpass-dct / refine-analysis-type=0 / copy-pic=1 / max-ausize-factor=1.0 / no-dynamic-refine / no-single-sei / no-hevc-aq / qp-adaptation-range=1.00
Default                                  : Yes
Forced                                   : No

Audio #1
ID                                       : 2
Format                                   : AC-3
Format/Info                              : Audio Coding 3
Codec ID                                 : A_AC3
Duration                                 : 1 h 54 min
Bit rate mode                            : Constant
Bit rate                                 : 192 kb/s
Channel(s)                               : 2 channels
Channel positions                        : Front: L R
Sampling rate                            : 48.0 kHz
Frame rate                               : 31.250 FPS (1536 SPF)
Bit depth                                : 16 bits
Compression mode                         : Lossy
Stream size                              : 157 MiB (4%)
Title                                    : БЗ - 1+1
Language                                 : Ukrainian
Service kind                             : Complete Main
Default                                  : Yes
Forced                                   : Yes

Audio #2
ID                                       : 3
Format                                   : AC-3
Format/Info                              : Audio Coding 3
Codec ID                                 : A_AC3
Duration                                 : 1 h 54 min
Bit rate mode                            : Constant
Bit rate                                 : 192 kb/s
Channel(s)                               : 2 channels
Channel positions                        : Front: L R
Sampling rate                            : 48.0 kHz
Frame rate                               : 31.250 FPS (1536 SPF)
Bit depth                                : 16 bits
Compression mode                         : Lossy
Stream size                              : 157 MiB (4%)
Title                                    : БЗ - EnterFilm
Language                                 : Ukrainian
Service kind                             : Complete Main
Default                                  : No
Forced                                   : No

Audio #3
ID                                       : 4
Format                                   :
Format/Info                              : Advanced Audio Codec
Format profile                           : LC
Codec ID                                 : A_AAC-2
Duration                                 : 1 h 54 min
Bit rate                                 : 434 kb/s
Channel(s)                               : 6 channels
Channel positions                        : Front: L C R, Side: L R, LFE
Sampling rate                            : 48.0 kHz
Frame rate                               : 46.875 FPS (1024 SPF)
Compression mode                         : Lossy
Delay relative to video                  : 20 ms
Stream size                              : 354 MiB (8%)
Title                                    : Original
Language                                 : English
Default                                  : No
Forced                                   : No

Text
ID                                       : 5
Format                                   : UTF-8
Codec ID                                 : S_TEXT/UTF8
Codec ID/Info                            : UTF-8 Plain Text
Duration                                 : 1 h 45 min
Bit rate                                 : 48 b/s
Count of elements                        : 1124
Stream size                              : 37.2 KiB (0%)
Title                                    : Full
Language                                 : English
Default                                  : Yes
Forced                                   : No

Menu
00:00:00.000                             : en:Chapter 01
00:08:10.072                             : en:Chapter 02
00:15:29.637                             : en:Chapter 03
00:18:58.887                             : en:Chapter 04
00:27:13.048                             : en:Chapter 05
00:31:41.816                             : en:Chapter 06
00:39:09.555                             : en:Chapter 07
00:43:31.275                             : en:Chapter 08
00:49:24.795                             : en:Chapter 09
00:53:32.876                             : en:Chapter 10
01:02:17.024                             : en:Chapter 11
01:13:23.482                             : en:Chapter 12
01:19:33.894                             : en:Chapter 13
01:28:04.279                             : en:Chapter 14
01:35:08.369                             : en:Chapter 15
01:43:33.040                             : en:Chapter 16
Світлини





Джерело: &
Особиста оцінка: 0 - не дивився


 Трекер:    Зареєстрований   

Завантажити / скачати фільм українською



відео для новачків



 Зареєстрований:   2019-02-13 10:29
 Розмір:   4.24 GB 
 Оцінка фільму:   10/10 (Голосів: 1)
   
Інші релізи
   Капоте / Capote (2005) AVC 2xUkr/Eng Arsenfpu  3 / 0   2.29 GB   2017-11-11 14:51 
   Капоте / Capote (2005) 720p 2xUkr/Eng | Sub Eng igor911  5 / 0   4.83 GB   2017-04-17 15:58 
   Капоте / Capote (2005) Ukr/Eng | Sub Eng Lan  3 / 0   2.18 GB   2013-03-25 16:17 
Ваш часовий пояс: GMT + 2 Години

Нова тема   Відповісти