Ліга Чемпіонів 2018/19 | Рома - Порту |1-й матч 1/8 (12.02.2019) -AVC

Нові коментарі

Нова тема   Відповісти
немає
Автор Повідомлення
lokk234 
Новенький


З нами з: 05.03.14
Востаннє: 30.05.19
Повідомлень: 24

2019-02-13 02:27  
Ліга Чемпіонів 2018/19 | Рома - Порту |1-й матч 1/8 (12.02.2019) -AVC

Ліга Чемпіонів 2018/19 | Рома - Порту |1-й матч 1/8 (12.02.2019) -AVC


Телеканал: Футбол 2
Опис:
До вашої уваги 1-й матч 1/8 фіналу ЛЧ 2018/2019 між командами Рома та Порту.


Тривалість: 01:45:14
Якість:
Відео:
кодек: MPEG-2
розмір кадру: [email protected] х 576
бітрейт: 1620 кб/с

Аудіо:
мова: українська
коментатор: Микола Кравчук
кодек: 2.0
бітрейт: 224 кб/с
Скріншоти





Info:
General
ID : 1 (0x1)
Complete name : C:\Users\Admin\Documents\UEFA Champions League - last 16 1st leg. AS Roma - FC Porto\1 half.ts
Format : MPEG-TS
File size : 709 MiB
Duration : 51mn 1s
Overall bit rate : 1 941 Kbps

Video
ID : 256 (0x100)
Menu ID : 1 (0x1)
Format : AVC
Format/Info : Advanced Video Codec
Format profile : [email protected]
Format settings, CABAC : Yes
Format settings, ReFrames : 1 frame
Codec ID : 27
Duration : 51mn 1s
Bit rate : 1 619 Kbps
Width : 720 pixels
Height : 576 pixels
Display aspect ratio : 16:9
Frame rate : 25.000 fps
Standard : PAL
Color space : YUV
Chroma subsampling : 4:2:0
Bit depth : 8 bits
Scan type : Progressive
Bits/(Pixel*Frame) : 0.156
Stream size : 591 MiB (83%)

Audio
ID : 257 (0x101)
Menu ID : 1 (0x1)
Format :
Format/Info : Advanced Audio Codec
Format version : Version 4
Format profile : LC
Muxing mode : ADTS
Codec ID : 15
Duration : 51mn 1s
Bit rate mode : Constant
Bit rate : 224 Kbps
Channel(s) : 2 channels
Channel positions : Front: L R
Sampling rate : 44.1 KHz
Compression mode : Lossy
Delay relative to video : -24ms
Stream size : 81.9 MiB (12%)
Language : Ukrainian

Menu
ID : 4096 (0x1000)
Menu ID : 1 (0x1)
Duration : 51mn 1s
List : 256 (0x100) (AVC) / 257 (0x101) (, Ukrainian)
Language : / Ukrainian
Service name : Service01
Service provider : FFmpeg
Service type : digital television

Джерело:
Особиста оцінка: 9 - рекомендую любителям футболу
rhorosh 
Частий відвідувач


З нами з: 23.03.09
Востаннє: 23.08.19
Повідомлень: 49

2019-02-13 09:14  
1/8
lokk234 
Новенький


З нами з: 05.03.14
Востаннє: 30.05.19
Повідомлень: 24

2019-02-13 12:31  
тупанув
Ваш часовий пояс: GMT + 2 Години

Нова тема   Відповісти