Оксамитова бензопилка / Velvet Buzzsaw (2019) 1080p Ukr/Eng | Sub Eng

Нові коментарі

Нова тема   Відповісти
Автор Повідомлення
-Star-Lord- 
VIP


З нами з: 09.08.18
Востаннє: 23.03.19
Повідомлень: 724

2019-02-12 14:51  
Оксамитова бензопилка / Velvet Buzzsaw (2019) 1080p Ukr/Eng | Sub Eng

Оксамитова бензопилка / Velvet Buzzsaw (2019) 1080p Ukr/Eng | Sub Eng


Жанр: Комедія, Кримінал, Трилер, Жахи
Країна: США
Кінокомпанія: NetFlix
Режисер: Ден Гілрой
Актори: Джейк Джилленгол, Джон Малкович, Біллі Магнуссен, Тоні Коллетт, Наталія Дайер, Рене Руссо, Давид Діггс, Том Старрідж, Зейв Ештон, Пітер Гадіот та інші.

Сюжет:
Події розгортаються в світі високого сучасного мистецтва Лос-Анджелесу. За сюжетом, кілька колекціонерів і власників галерей відкривають нового невідомого художника, чиї загадкові картини ніби приходять в рух, коли на них дивишся досить довго. Але незабаром виявляється, що ці картини здатні не тільки рухаютьсь, але і вбивають своїх власників…

Тривалість: 01:51:58
Якість:
Відео:
кодек:
розмір кадру: 1920 x 1038
бітрейт: 12 025 кб/с

Аудіо # 1:
мова: українська
переклад: багатоголосий закадровий | DniproFilm
кодек: AC-3 5.1
бітрейт: 384 кб/с
Підтримати українське озвучення
Для студії DniproFilm дуже важлива популярність, чим популярнішою буде студія, тим більшу кількість українського озвучення до нових фільмів та серіалів в неї замовлятимуть. Тому прохання до не байдужих підписуватися на їх телеграм канал
Аудіо # 2:
мова: англійська
переклад: оригінал
кодек: E-AC-3
бітрейт: 448 кб/с

Субтитри # 1:
мова: англійська (Full),
тип: програмні (м'які)
формат: *.srt

Субтитри # 2:
мова: англійська (SDH),
тип: програмні (м'які)
формат: *.srt


Info
Код:
General
Unique ID                                : 63460737645672902053414766398136267406 (0x2FBE17EF1F5EB1C802BB59BCE922328E)
Complete name                            : F:\Video\Velvet Buzzsaw (2019) 1080p [UKR_ENG].
Format                                   :
Format version                           : Version 4 / Version 2
File size                                : 10.1 GiB
Duration                                 : 1 h 51 min
Overall bit rate                         : 12.9 Mb/s
Movie name                               : Velvet Buzzsaw (2019)
Encoded date                             : UTC 2019-02-12 12:44:26
Writing application                      : v20.0.0 ('I Am The Sun') 64-bit
Writing library                          : libebml v1.3.5 + v1.4.8
Cover                                    : Yes
Attachments                              : Cover.jpg

Video
ID                                       : 1
Format                                   : AVC
Format/Info                              : Advanced Video Codec
Format profile                           : [email protected]
Format settings                          : CABAC / 4 Ref Frames
Format settings, CABAC                   : Yes
Format settings, ReFrames                : 4 frames
Codec ID                                 : V_MPEG4/ISO/AVC
Duration                                 : 1 h 51 min
Bit rate                                 : 12.0 Mb/s
Width                                    : 1 920 pixels
Height                                   : 1 038 pixels
Display aspect ratio                     : 1.85:1
Frame rate mode                          : Constant
Frame rate                               : 24.000 FPS
Color space                              : YUV
Chroma subsampling                       : 4:2:0
Bit depth                                : 8 bits
Scan type                                : Progressive
Bits/(Pixel*Frame)                       : 0.251
Stream size                              : 9.40 GiB (94%)
Title                                    : Velvet Buzzsaw (2019)
Writing library                          : core 157 r2935+3 (master: 545de2f / tmod: 0f48dd4) [X86_64]
Encoding settings                        : cabac=1 / ref=4 / deblock=1:-3:-3 / analyse=0x3:0x133 / me=umh / subme=11 / psy=1 / psy_rd=1.05:0.15 / mixed_ref=1 / me_range=48 / chroma_me=1 / trellis=2 / 8x8dct=1 / cqm=0 / deadzone=6,6 / fast_pskip=0 / chroma_qp_offset=-3 / threads=32 / lookahead_threads=8 / sliced_threads=0 / nr=0 / decimate=0 / interlaced=0 / bluray_compat=0 / constrained_intra=0 / bframes=10 / b_pyramid=2 / b_adapt=2 / b_bias=0 / direct=3 / weightb=1 / open_gop=0 / weightp=2 / keyint=250 / keyint_min=24 / scenecut=40 / intra_refresh=0 / rc_lookahead=60 / rc=crf / mbtree=0 / crf=17.0 / qcomp=0.70 / qpmin=0 / qpmax=69 / qpstep=4 / vbv_maxrate=62500 / vbv_bufsize=78125 / crf_max=0.0 / nal_hrd=none / filler=0 / ip_ratio=1.25 / pb_ratio=1.20 / aq=3:0.70
Language                                 : English
Default                                  : Yes
Forced                                   : No

Audio #1
ID                                       : 2
Format                                   : AC-3
Format/Info                              : Audio Coding 3
Codec ID                                 : A_AC3
Duration                                 : 1 h 51 min
Bit rate mode                            : Constant
Bit rate                                 : 384 kb/s
Channel(s)                               : 6 channels
Channel positions                        : Front: L C R, Side: L R, LFE
Sampling rate                            : 48.0 kHz
Frame rate                               : 31.250 FPS (1536 SPF)
Bit depth                                : 16 bits
Compression mode                         : Lossy
Stream size                              : 308 MiB (3%)
Title                                    : БЗ - DniproFilm
Language                                 : Ukrainian
Service kind                             : Complete Main
Default                                  : Yes
Forced                                   : Yes

Audio #2
ID                                       : 3
Format                                   : E-AC-3
Format/Info                              : Enhanced Audio Coding 3
Format profile                           : E-AC-3+Atmos / E-AC-3
Codec ID                                 : A_EAC3
Duration                                 : 1 h 51 min
Bit rate mode                            : Constant
Bit rate                                 : 448 kb/s
Channel(s)                               : 15 objects / 6 channels
Channel positions                        : 15 objects / Front: L C R, Side: L R, LFE
Sampling rate                            : 48.0 kHz
Frame rate                               : 187.500 FPS (256 SPF)
Compression mode                         : Lossy
Stream size                              : 359 MiB (3%)
Title                                    : Original
Language                                 : English
Service kind                             : Complete Main
Default                                  : No
Forced                                   : No

Text #1
ID                                       : 4
Format                                   : UTF-8
Codec ID                                 : S_TEXT/UTF8
Codec ID/Info                            : UTF-8 Plain Text
Duration                                 : 1 h 44 min
Bit rate                                 : 56 b/s
Count of elements                        : 1313
Stream size                              : 43.5 KiB (0%)
Title                                    : Full
Language                                 : English
Default                                  : No
Forced                                   : No

Text #2
ID                                       : 5
Format                                   : UTF-8
Codec ID                                 : S_TEXT/UTF8
Codec ID/Info                            : UTF-8 Plain Text
Duration                                 : 1 h 46 min
Bit rate                                 : 63 b/s
Count of elements                        : 1518
Stream size                              : 49.2 KiB (0%)
Title                                    : SDH
Language                                 : English
Default                                  : No
Forced                                   : No
Світлини





Джерело: &
Особиста оцінка: 0 - не дивився


Авторський реліз (завантажувати можна без реєстрації)
 Трекер:    Зареєстрований   

Завантажити / скачати фільм українською



відео для новачків



 Зареєстрований:   2019-02-12 14:51
 Розмір:   10.06 GB 
 Оцінка фільму:   5.9/10 (Голосів: 8)
   
sosothit 
Частий відвідувач


З нами з: 29.10.09
Востаннє: 20.03.19
Повідомлень: 27

2019-02-12 16:07  
дякую за реліз.
я помітив , що вказаний неправильний рейтинг IMDB
https://www.imdb.com/title/tt7043012/
зараз він 5.8 а не 8.7

-Star-Lord- 
VIP


З нами з: 09.08.18
Востаннє: 23.03.19
Повідомлень: 724

2019-02-12 16:20  
sosothit написано:

дякую за реліз.
я помітив , що вказаний неправильний рейтинг IMDB
https://www.imdb.com/title/tt7043012/
зараз він 5.8 а не 8.7

Толока перевантажує цей показник раз в тиждень, якщо я не помиляюся. Тому треба трішки зачекати, поки воно оновиться.

alesandroua 
Свій


З нами з: 09.10.16
Востаннє: 21.03.19
Повідомлень: 57

2019-02-13 16:25  
Реліз з рекламою чи ні?
11FrYkT 
Модератор відео


З нами з: 20.02.11
Востаннє: 22.03.19
Повідомлень: 5718

2019-02-13 16:35  
alesandroua написано:
Реліз з рекламою чи ні?

ні, вони на толоці заборонені правилами

Lyolic 
VIP


З нами з: 04.08.09
Востаннє: 21.03.19
Повідомлень: 346

2019-02-14 20:46  
11FrYkT
Чи правила не для всіх, чи я щось не розумію... https://toloka.to/t98815#1069801

alesandroua 
Свій


З нами з: 09.10.16
Востаннє: 21.03.19
Повідомлень: 57

2019-02-15 09:51  
Lyolic
Саме після того як відвідав цей розділ і вірішив задати це питання. Доречі тут https://toloka.to/t98815#1069801 навіть в шапці теми не вказано щодо наявності реклами

Додано через 34 хвилини:

11FrYkT
https://toloka.to/t97627
https://toloka.to/t97628
Як на мене все просто, або видаляйте, або змінюйте правила. І не буде зайвих питань...

Lyolic 
VIP


З нами з: 04.08.09
Востаннє: 21.03.19
Повідомлень: 346

2019-02-15 10:04  
alesandroua
Цитата:
3.8 Заборонено поміщати у роздачу рекламу в будь-якій формі. Цей пункт поширюється на всі роздачі, створені (оновлені) після 12.01.19. Винятком є випадки, коли роздача, що містила рекламу до кінця дня 12.01.2019, оновлюється з метою створення цілісного продукту (наприклад, у випадку серіалів - сезону)

Ці роздачі створені ще в 2018

-Star-Lord- 
VIP


З нами з: 09.08.18
Востаннє: 23.03.19
Повідомлень: 724

2019-02-15 10:31  
alesandroua написано:

11FrYkT
https://toloka.to/t97627
https://toloka.to/t97628
Як на мене все просто, або видаляйте, або змінюйте правила. І не буде зайвих питань...

Якщо хтось очистить доріжки, зроблю пакет релізів в різній якості.

alesandroua 
Свій


З нами з: 09.10.16
Востаннє: 21.03.19
Повідомлень: 57

2019-02-15 13:05  
Lyolic
щодо "старих" релізів - зрозуміло, а от https://toloka.to/t98815 цей-новий.
-Star-Lord-
Заздалегідь дякую. Дуже хотів би подивитись "Рому"(без реклами) до церемонії Оскару

fl_fl 
Відео Гуртом - фільмокрай
Відео Гуртом - фільмокрай


З нами з: 26.05.09
Востаннє: 22.03.19
Повідомлень: 3150

2019-02-15 13:18  
alesandroua написано:
Дуже хотів би подивитись "Рому"(без реклами) до церемонії Оскару

Хіба то проблема?

https://www.netflix.com/ua/title/80240715

Lyolic 
VIP


З нами з: 04.08.09
Востаннє: 21.03.19
Повідомлень: 346

2019-02-15 13:30  
alesandroua
Так, тому я там і писав Happy

vovang6 
Поважний учасник


З нами з: 27.08.12
Востаннє: 22.03.19
Повідомлень: 189

2019-02-16 19:50  
Фільм ніби то норм, але чогось не вистачає. Можливо тому що сюжет розкритий не повністю, як на мене. 6/10.
Ваш часовий пояс: GMT + 2 Години

Нова тема   Відповісти