Я досі знаю, що ви скоїли минулого літа / I Still Know What You Did Last Summer (1998) 1080p H.265 2xUkr/Eng | Sub Eng

Нові коментарі

Нова тема   Відповісти
Автор Повідомлення
Anonymous 







2019-02-12 13:25  
Я досі знаю, що ви скоїли минулого літа / I Still Know What You Did Last Summer (1998) 1080p H.265 2xUkr/Eng | Sub Eng

Я досі знаю, що ви скоїли минулого літа / I Still Know What You Did Last Summer (1998) 1080p H.265 2xUkr/Eng | Sub Eng


Жанр: жахи, кримінальний, трилер
Країна: США
Кінокомпанія: Mandalay Entertainment, Columbia Pictures
Режисер: Денні Кеннон
Актори: Дженніфер Лав Г'юїтт, Фредді Прінц-молодший, Бренді Норвуд, Мехі Файфер, М'юз Вотсон

Сюжет:
Джулі Джеймс так і не змогла пережити жах минулого літа. Хоча жорстокий маніяк був убитий, його тіло так і не знайшли. Тінь похмурого месника продовжує переслідувати дівчину в кошмарних снах. Щоб позбутися страшних спогадів, Джулі з друзями відправляється на живописний тропічний острів. Вони сподіваються провести тут декілька прекрасних днів, але ... Райський куточок виявляється справжнім пеклом. Насувається шторм, і останній катер з туристами вже відчалив від берега. Спустіла сцена готова для кривавого спектаклю. За туманною пеленою дощу Джулі знову побачила зловісну фігуру того, хто ДОСІ ЗНАЄ, ЩО ВОНА СКОЇЛА минулого літа.

Тривалість: 01:40:33
Якість:
Відео:
кодек: H.265 (HEVC)
розмір кадру: 1920 x 800
бітрейт: 5 879 кб/с
бітова глибина: 10 біт
Увага! Перед завантаженням переконайтесь, що ваш пристрій відтворення (та/або ПЗ) підтримує H.265 (HEVC)

Аудіо # 1:
мова: українська
переклад: багатоголосий закадровий ,
кодек: AC-3 2.0
бітрейт: 192 кб/с

Аудіо # 2:
мова: українська
переклад: багатоголосий закадровий
кодек: AC-3 2.0
бітрейт: 192 кб/с

Аудіо # 3:
мова: англійська
переклад: оригінал
кодек: AC-3 5.1
бітрейт: 640 кб/с

Субтитри # 1:
мова: англійська (Full),
тип: програмні (м'які)
формат: *.srt


Info
Код:
General
Unique ID                                : 128905913587742049078475584407820837796 (0x60FA603AE6101F1C29866E4D43F823A4)
Complete name                            : D:\Video\I Still Know What You Did Last Summer (1998) 1080p H.265 [2xUKR_ENG].
Format                                   :
Format version                           : Version 4 / Version 2
File size                                : 4.85 GiB
Duration                                 : 1 h 40 min
Overall bit rate                         : 6 905 kb/s
Movie name                               : I Still Know What You Did Last Summer (1998)
Encoded date                             : UTC 2019-02-12 10:39:26
Writing application                      : v20.0.0 ('I Am The Sun') 64-bit
Writing library                          : libebml v1.3.5 + v1.4.8
Cover                                    : Yes
Attachments                              : Cover.jpg

Video
ID                                       : 1
Format                                   : HEVC
Format/Info                              : High Efficiency Video Coding
Format profile                           : Main [email protected]@High
Codec ID                                 : V_MPEGH/ISO/HEVC
Duration                                 : 1 h 40 min
Bit rate                                 : 5 878 kb/s
Width                                    : 1 920 pixels
Height                                   : 800 pixels
Display aspect ratio                     : 2.40:1
Frame rate mode                          : Constant
Frame rate                               : 23.976 (24000/1001) FPS
Color space                              : YUV
Chroma subsampling                       : 4:2:0
Bit depth                                : 10 bits
Bits/(Pixel*Frame)                       : 0.160
Stream size                              : 4.13 GiB (85%)
Title                                    : I Still Know What You Did Last Summer (1998)
Writing library                          : x265 2.9+9-f74003e88622:[Windows][GCC 8.2.0][64 bit] 10bit
Encoding settings                        : cpuid=1111039 / frame-threads=13 / numa-pools=12 / wpp / no-pmode / no-pme / no-psnr / no-ssim / log-level=3 / input-csp=1 / input-res=1920x800 / interlace=0 / total-frames=0 / level-idc=41 / high-tier=1 / uhd-bd=0 / ref=5 / allow-non-conformance / no-repeat-headers / annexb / no-aud / no-hrd / info / hash=0 / no-temporal-layers / no-open-gop / min-keyint=23 / keyint=240 / gop-lookahead=0 / bframes=8 / b-adapt=2 / b-pyramid / bframe-bias=0 / rc-lookahead=65 / lookahead-slices=5 / scenecut=40 / radl=0 / no-intra-refresh / ctu=64 / min-cu-size=8 / rect / amp / max-tu-size=32 / tu-inter-depth=1 / tu-intra-depth=1 / limit-tu=0 / rdoq-level=0 / dynamic-rd=0.00 / no-ssim-rd / signhide / no-tskip / nr-intra=0 / nr-inter=0 / no-constrained-intra / no-strong-intra-smoothing / max-merge=2 / limit-refs=3 / no-limit-modes / me=3 / subme=7 / merange=57 / temporal-mvp / weightp / weightb / no-analyze-src-pics / deblock=-3:-3 / no-sao / no-sao-non-deblock / rd=3 / no-early-skip / rskip / no-fast-intra / no-tskip-fast / no-cu-lossless / no-b-intra / no-splitrd-skip / rdpenalty=0 / psy-rd=2.00 / psy-rdoq=0.00 / no-rd-refine / no-lossless / cbqpoffs=0 / crqpoffs=0 / rc=crf / crf=17.0 / qcomp=0.70 / qpstep=4 / stats-write=0 / stats-read=0 / vbv-maxrate=50000 / vbv-bufsize=50000 / vbv-init=0.9 / crf-max=30.0 / crf-min=0.0 / ipratio=1.40 / pbratio=1.30 / aq-mode=2 / aq-strength=1.00 / cutree / zone-count=0 / no-strict-cbr / qg-size=32 / no-rc-grain / qpmax=69 / qpmin=0 / no-const-vbv / sar=1 / overscan=0 / videoformat=5 / range=0 / colorprim=1 / transfer=1 / colormatrix=1 / chromaloc=0 / display-window=0 / max-cll=0,0 / min-luma=0 / max-luma=1023 / log2-max-poc-lsb=8 / vui-timing-info / vui-hrd-info / slices=1 / no-opt-qp-pps / no-opt-ref-list-length-pps / no-multi-pass-opt-rps / scenecut-bias=0.05 / no-opt-cu-delta-qp / no-aq-motion / no-hdr / no-hdr-opt / no-dhdr10-opt / no-idr-recovery-sei / analysis-reuse-level=5 / scale-factor=0 / refine-intra=0 / refine-inter=0 / refine-mv=0 / no-limit-sao / ctu-info=0 / no-lowpass-dct / refine-mv-type=0 / copy-pic=1 / max-ausize-factor=1.0 / no-dynamic-refine / no-single-sei
Default                                  : Yes
Forced                                   : No
Color range                              : Limited
Color primaries                          : BT.709
Transfer characteristics                 : BT.709
Matrix coefficients                      : BT.709

Audio #1
ID                                       : 2
Format                                   : AC-3
Format/Info                              : Audio Coding 3
Codec ID                                 : A_AC3
Duration                                 : 1 h 40 min
Bit rate mode                            : Constant
Bit rate                                 : 192 kb/s
Channel(s)                               : 2 channels
Channel positions                        : Front: L R
Sampling rate                            : 48.0 kHz
Frame rate                               : 31.250 FPS (1536 SPF)
Bit depth                                : 16 bits
Compression mode                         : Lossy
Stream size                              : 138 MiB (3%)
Title                                    : БЗ - ICTV, TET
Language                                 : Ukrainian
Service kind                             : Complete Main
Default                                  : Yes
Forced                                   : Yes

Audio #2
ID                                       : 3
Format                                   : AC-3
Format/Info                              : Audio Coding 3
Codec ID                                 : A_AC3
Duration                                 : 1 h 40 min
Bit rate mode                            : Constant
Bit rate                                 : 192 kb/s
Channel(s)                               : 2 channels
Channel positions                        : Front: L R
Sampling rate                            : 48.0 kHz
Frame rate                               : 31.250 FPS (1536 SPF)
Bit depth                                : 16 bits
Compression mode                         : Lossy
Stream size                              : 138 MiB (3%)
Title                                    : БЗ - Kanal Ukraina
Language                                 : Ukrainian
Service kind                             : Complete Main
Default                                  : No
Forced                                   : No

Audio #3
ID                                       : 4
Format                                   : AC-3
Format/Info                              : Audio Coding 3
Codec ID                                 : A_AC3
Duration                                 : 1 h 40 min
Bit rate mode                            : Constant
Bit rate                                 : 640 kb/s
Channel(s)                               : 6 channels
Channel positions                        : Front: L C R, Side: L R, LFE
Sampling rate                            : 48.0 kHz
Frame rate                               : 31.250 FPS (1536 SPF)
Bit depth                                : 16 bits
Compression mode                         : Lossy
Stream size                              : 460 MiB (9%)
Title                                    : Original
Language                                 : English
Service kind                             : Complete Main
Default                                  : No
Forced                                   : No

Text
ID                                       : 5
Format                                   : UTF-8
Codec ID                                 : S_TEXT/UTF8
Codec ID/Info                            : UTF-8 Plain Text
Duration                                 : 1 h 34 min
Bit rate                                 : 52 b/s
Count of elements                        : 1022
Stream size                              : 36.4 KiB (0%)
Title                                    : Full
Language                                 : English
Default                                  : No
Forced                                   : No

Menu
00:00:00.000                             : :00:00:00.000
00:05:34.459                             : :00:05:34.459
00:12:37.298                             : :00:12:37.298
00:20:10.834                             : :00:20:10.834
00:25:51.967                             : :00:25:51.967
00:33:10.071                             : :00:33:10.071
00:35:34.966                             : :00:35:34.966
00:44:11.732                             : :00:44:11.732
00:53:23.366                             : :00:53:23.366
01:01:34.607                             : :01:01:34.607
01:08:34.819                             : :01:08:34.819
01:17:02.618                             : :01:17:02.618
01:21:26.298                             : :01:21:26.298
01:26:25.221                             : :01:26:25.221
01:30:27.463                             : :01:30:27.463
01:33:13.087                             : :01:33:13.087
Світлини





Джерело: &
Особиста оцінка: 0 - не дивився


Срібний реліз (на рейтинг впливає 50% завантаженого)
 Трекер:    Зареєстрований   

Завантажити / скачати фільм українською



відео для новачків



 Зареєстрований:   2019-02-12 13:25
 Розмір:   4.85 GB 
 Оцінка фільму:   10/10 (Голосів: 1)
   
Ваш часовий пояс: GMT + 2 Години

Нова тема   Відповісти