Лічені секунди / Split Second (1992) 1080p Ukr/Eng | Sub Eng

Нові коментарі

Нова тема   Відповісти
Автор Повідомлення
staf777 
Відео Гуртом - підтримка та поширення
Відео Гуртом - підтримка та поширення


З нами з: 16.11.16
Востаннє: 11.12.19
Повідомлень: 3042

2019-02-12 10:38  
Лічені секунди / Split Second (1992) 1080p Ukr/Eng | Sub Eng

Лічені секунди / Split Second (1992) 1080p Ukr/Eng | Sub Eng


Жанр: фантастика, бойовик, жахи, трилер, кримінальний
Країна: Велика Британія



Режисер: Tony Maylam / Тоні Мейлем
Актори: Рутґер Гауер / Rutger Hauer, Кім Кеттролл, Ніл Данкан, Піт Постлетвейт, Майкл Дж. Поллард та інші

Сюжет:
2008 рік. Місце дії - туманний Лондон, напівзатоплений Темзою після всесвітньої екологічної катастрофи. Місто вражене загадковими, нелюдськими вбивствами. Кожен день на вулицях знаходять трупи людей з розірваною грудною кліткою...


Тривалість: 01:30:25
Якість: 1080p
Відео:
кодек:
розмір кадру: 1920x1080
бітрейт: 13.8 Mб/с

Аудіо # 1:
мова: українська
переклад: багатоголосий закадровий
кодек: 2.0
бітрейт: 192 кб/с

Аудіо # 2:
мова: англійська
переклад: оригінал
кодек: 2.0
бітрейт: 448 кб/с

Субтитри:
мова: англійська
тип: програмні (м'які)
формат: *.srt
Info
General
Unique ID : 863466591758391457523052777781953939 (0xA64C309861C804D1C6A0FC905D8593)
Complete name : S:\» HD українською » Фільми в HD\Фантастика\Split Second (1992) [Ukr,Eng sub.Eng] 1080p [Hurtom].
Format :
Format version : Version 4
File size : 9.12 GiB
Duration : 1 h 30 min
Overall bit rate : 14.4 Mb/s
Movie name : Split Second (1992) [Ukr,Eng sub.Eng] 1080p [Hurtom]
Encoded date : UTC 2019-02-12 07:58:04
Writing application : v30.1.0 ('Forever And More') 64-bit
Writing library : libebml v1.3.6 + v1.4.9
Cover : Yes
Attachments : cover

Video
ID : 1
Format : AVC
Format/Info : Advanced Video Codec
Format profile : [email protected]
Format settings : CABAC / 4 Ref Frames
Format settings, CABAC : Yes
Format settings, ReFrames : 4 frames
Codec ID : V_MPEG4/ISO/AVC
Duration : 1 h 30 min
Bit rate : 13.8 Mb/s
Width : 1 920 pixels
Height : 1 080 pixels
Display aspect ratio : 16:9
Frame rate mode : Constant
Frame rate : 23.976 (24000/1001) FPS
Color space : YUV
Chroma subsampling : 4:2:0
Bit depth : 8 bits
Scan type : Progressive
Bits/(Pixel*Frame) : 0.277
Stream size : 8.71 GiB (96%)
Writing library : core 146 r2538 121396c
Encoding settings : cabac=1 / ref=4 / deblock=1:-1:-1 / analyse=0x3:0x113 / me=umh / subme=10 / psy=1 / psy_rd=1.00:0.15 / mixed_ref=1 / me_range=32 / chroma_me=1 / trellis=2 / 8x8dct=1 / cqm=0 / deadzone=21,11 / fast_pskip=1 / chroma_qp_offset=-3 / threads=6 / lookahead_threads=1 / sliced_threads=0 / nr=0 / decimate=1 / interlaced=0 / bluray_compat=0 / constrained_intra=0 / bframes=7 / b_pyramid=2 / b_adapt=2 / b_bias=0 / direct=1 / weightb=1 / open_gop=0 / weightp=2 / keyint=230 / keyint_min=23 / scenecut=40 / intra_refresh=0 / rc_lookahead=40 / rc=crf / mbtree=0 / crf=19.0 / qcomp=0.60 / qpmin=0 / qpmax=69 / qpstep=4 / vbv_maxrate=40000 / vbv_bufsize=50000 / crf_max=0.0 / nal_hrd=none / filler=0 / ip_ratio=1.40 / pb_ratio=1.30 / aq=1:1.00
Language : English
Default : Yes
Forced : No

Audio #1
ID : 2
Format : AC-3
Format/Info : Audio Coding 3
Commercial name : Dolby Digital
Codec ID : A_AC3
Duration : 1 h 30 min
Bit rate mode : Constant
Bit rate : 192 kb/s
Channel(s) : 2 channels
Channel layout : L R
Sampling rate : 48.0 kHz
Frame rate : 31.250 FPS (1536 SPF)
Bit depth : 16 bits
Compression mode : Lossy
Stream size : 124 MiB (1%)
Title : Mvo - 2.0 @ 192 kbps
Language : Ukrainian
Service kind : Complete Main
Default : Yes
Forced : Yes

Audio #2
ID : 3
Format : AC-3
Format/Info : Audio Coding 3
Commercial name : Dolby Digital
Codec ID : A_AC3
Duration : 1 h 30 min
Bit rate mode : Constant
Bit rate : 448 kb/s
Channel(s) : 6 channels
Channel layout : L R C LFE Ls Rs
Sampling rate : 48.0 kHz
Frame rate : 31.250 FPS (1536 SPF)
Bit depth : 16 bits
Compression mode : Lossy
Stream size : 290 MiB (3%)
Title : Original
Language : English
Service kind : Complete Main
Default : No
Forced : No

Text
ID : 4
Format : UTF-8
Codec ID : S_TEXT/UTF8
Codec ID/Info : UTF-8 Plain Text
Duration : 1 h 24 min
Bit rate : 41 b/s
Count of elements : 809
Stream size : 25.5 KiB (0%)
Title : [SRT/UTF8] Full
Language : English
Default : No
Forced : No





Джерело: & Інше
Особиста оцінка: 8 - мені сподобалося
Лічені секунди / Split Second (1992) 1080p Ukr/Eng | Sub Eng Лічені секунди / Split Second (1992) 1080p Ukr/Eng | Sub Eng


Срібний реліз (на рейтинг впливає 50% завантаженого)
 Трекер:    Зареєстрований   

Завантажити / скачати фільм українською



відео для новачків



 Зареєстрований:   2019-02-12 14:04
 Розмір:   9.12 GB 
 Оцінка фільму:   8.6/10 (Голосів: 8)
   
Інші релізи
   Лічені секунди / Split Second (1992) Remux 1080p Ukr/Eng | Sub Eng MakRA  2 / 0   17.77 GB   2019-12-08 19:22 
   Лічені секунди / Split Second (1992) AVC Ukr/Eng Arsenfpu  3 / 0   2.24 GB   2018-04-26 10:33 
   Лічені секунди / Split Second (1992) 720p Ukr/Eng | Sub Eng staf777  0 / 0   4.83 GB   2017-02-19 16:10 
   Лічені секунди / Split Second (1992) Ukr/Eng MAKAPOHHIK  0 / 0   1.46 GB   2010-06-17 16:40 
bot 
робот


З нами з: 30.09.07
Востаннє: 26.05.05
Повідомлень: 22609

2019-02-12 14:04  
Тему перенесено з Анонси релізів до форуму Фільми в HD


staf777

Ваш часовий пояс: GMT + 2 Години

Нова тема   Відповісти