Слон сидить спокійно / An Elephant Sitting Still / Da xiang xi di er zuo (2018) 720p Chi | Sub Ukr/Eng

Нові коментарі

Нова тема   Відповісти
Автор Повідомлення
YesNoMaybe 
Новенький


З нами з: 08.10.17
Востаннє: 07.12.19
Повідомлень: 9

2019-02-12 10:15  
Слон сидить спокійно / An Elephant Sitting Still / Da xiang xi di er zuo (2018) 720p Chi | Sub Ukr/Eng

Слон сидить спокійно / An Elephant Sitting Still / Da xiang xi di er zuo (2018) 720p Chi | Sub Ukr/Eng

Альтернативні постери



Жанр: драма
Країна: Китай



Кінокомпанія: Dongchun Films
Режисер: Ху Бо
Актори: Чжан Юй, Пен Юйчан, Ван Юйвень, Лі Цунсі та інші.

Сюжет:
Під похмурим небом у маленькому містечку на півночі Китаю життя різних персонажів сплітаються в скорботній оповідці нігілістичного гніву. Крізь віртуозну візуальну композицію, фільм переповідає історію довгого світлового дня. Вже в темряві відходить автобус у Маньчжурію — до циркового слона, який, кажуть, сидить спокійно.


Тривалість: 03:54:01
Якість:
Відео:
кодек:
розмір кадру: 1280 х 720
бітрейт: 1456 кб/с

Аудіо:
мова: китайська
переклад: оригінал
кодек: MP3
бітрейт: 128 кб/с

Субтитри:
мова: українська
переклад: ScreenMy
тип: програмні (м'які)
формат: *.srt

Субтитри:
мова: англійська
тип: програмні (м'які)
формат: *.srt
Скріншоти
Info
Код:

General
Format                      : AVI
Format/Info                 : Audio Video Interleave
File size                   : 2.61 GiB
Duration                    : 3 h 54 min
Overall bit rate            : 1 597 kb/s

Video
ID                          : 0
Format                      : MPEG-4 Visual
Format profile              : Advanced [email protected]
Format settings             : BVOP2
Format settings, BVOP       : 2
Format settings, QPel       : No
Format settings, GMC        : No warppoints
Format settings, Matrix     : Default (H.263)
Codec ID                    :
Codec ID/Hint               :
Duration                    : 3 h 54 min
Bit rate                    : 1 456 kb/s
Width                       : 1 280 pixels
Height                      : 720 pixels
Display aspect ratio        : 16:9
Frame rate                  : 24.000 FPS
Color space                 : YUV
Chroma subsampling          : 4:2:0
Bit depth                   : 8 bits
Scan type                   : Progressive
Compression mode            : Lossy
Bits/(Pixel*Frame)          : 0.066
Stream size                 : 2.38 GiB (91%)
Writing library             : 1.2.1 (UTC 2008-12-04)

Audio
ID                          : 1
Format                      : MPEG Audio
Format version              : Version 1
Format profile              : Layer 3
Format settings             : Joint stereo / MS Stereo
Codec ID                    : 55
Codec ID/Hint               : MP3
Duration                    : 3 h 54 min
Bit rate mode               : Constant
Bit rate                    : 128 kb/s
Channel(s)                  : 2 channels
Sampling rate               : 44.1 kHz
Compression mode            : Lossy
Stream size                 : 214 MiB (8%)
Alignment                   : Aligned on interleaves
Interleave, duration        : 26  ms (0.63 video frame)
Writing library             : LAME3.98.4
Особиста оцінка: 9 — один із найкращих фільмів 2018 року.


Золотий реліз (завантажене не впливає на рейтинг)
 Трекер:    Зареєстрований   

Завантажити / скачати фільм українською



відео для новачків



 Зареєстрований:   2019-02-12 10:15
 Розмір:   2.61 GB 
 Оцінка фільму:   8.3/10 (Голосів: 7)
   
SurFutur 
Поважний учасник


З нами з: 12.03.15
Востаннє: 04.12.19
Повідомлень: 241

2019-02-12 18:07  
Ого! Такого я точно не розраховував побачити на Гуртом.

P.S. Спочатку найбільш розхвалений корейський фільм минулого року Спалення, тепер китайський Слон сидить спокійно... Чи немає раптом у планах докупи ше й японської стрічки Крамничні злодюжки?

kinoroman 
Свій


З нами з: 04.12.16
Востаннє: 07.12.19
Повідомлень: 99

2019-07-20 20:14  
Фільм водночас і простий і складний. Простий - бо всі запитання і відповіді промовлені. Складний - бо стиль оповіді залишає відчуття похапцем зроблених висновків. Без жодних вагань 8/10.
Дякую всім причетним до релізу.

Ваш часовий пояс: GMT + 2 Години

Нова тема   Відповісти