Оксамитова бензопилка / Velvet Buzzsaw (2019) 1080p H.265 HDR Ukr/Eng | Sub Eng

Нові коментарі

Нова тема   Відповісти
Автор Повідомлення
-Star-Lord- 
VIP


З нами з: 09.08.18
Востаннє: 23.03.19
Повідомлень: 724

2019-02-12 09:58  
Оксамитова бензопилка / Velvet Buzzsaw (2019) 1080p H.265 HDR Ukr/Eng | Sub Eng

Оксамитова бензопилка / Velvet Buzzsaw (2019) 1080p H.265 HDR Ukr/Eng | Sub Eng


Жанр: жахи, містика, трилер
Країна: США
Кінокомпанія: Netflix
Режисер: Ден Ґілрой / Dan Gilroy
Актори: Джейк Джиленгол / Jake Gyllenhaal, Рене Руссо / Rene Russo, Заве Ештон / Zawe Ashton, Том Стурідж / Tom Sturridge, Тоні Коллет / Toni Collette, Наталія Дайер / Natalia Dyer, Давід Діґс / Daveed Diggs, Джон Малковіч / John Malkovich, Біллі Маґнусен / Billy Magnussen, Алан Мандел / Alan Mandell, Міґ Макаріо / Mig Macario та інші.

Сюжет:
Події розгортаються в світі високого сучасного мистецтва Лос-Анджелесу. За сюжетом, кілька колекціонерів і власників галерей відкривають нового невідомого художника, чиї загадкові картини ніби приходять в рух, коли на них дивишся досить довго. Але незабаром виявляється, що ці картини здатні не тільки рухаютьсь, але і вбивають своїх власників…

Тривалість: 01:52:12
Якість:
Відео:
кодек: H.265 (HEVC)
розмір кадру: 1920 x 1038
бітрейт: 6 949 кб/с
бітова глибина: 10 біт
кольоровий простір: BT.2020 (HDR)
Як відтворити HDR контент на звичайному пк, на якому немає його підтримки
1. Для відтворення скачайте K-Lite Codec Pack
2. Виберіть Madvr тут:
MPC-HC options > Playback > Output > Video Renderer

3. Перезавантажте MPC-HC

Увага! Перед завантаженням переконайтесь, що ваш пристрій відтворення (та/або ПЗ) підтримує H.265 (HEVC)

Аудіо # 1:
мова: українська
переклад: багатоголосий закадровий | DniproFilm
кодек: AC-3 5.1
бітрейт: 384 кб/с
Підтримати українське озвучення
Для студії DniproFilm дуже важлива популярність, чим популярнішою буде студія, тим більшу кількість українського озвучення до нових фільмів та серіалів в неї замовлятимуть. Тому прохання до не байдужих підписуватися на їх телеграм канал
Аудіо # 2:
мова: англійська
переклад: оригінал
кодек: E-AC-3
бітрейт: 448 кб/с

Субтитри # 1:
мова: англійська (Full),
тип: програмні (м'які)
формат: *.srt

Субтитри # 2:
мова: англійська (SDH),
тип: програмні (м'які)
формат: *.srt


Info
Код:
General
Unique ID                                : 192362576573346129846565949474313158451 (0x90B7AF4494AB249D8B8057279E593F33)
Complete name                            : F:\Video\Velvet Buzzsaw (2019) 1080p H.265 [HDR] [UKR_ENG].
Format                                   :
Format version                           : Version 4 / Version 2
File size                                : 6.10 GiB
Duration                                 : 1 h 52 min
Overall bit rate                         : 7 763 kb/s
Movie name                               : Velvet Buzzsaw (2019)
Encoded date                             : UTC 2019-02-25 07:08:17
Writing application                      : v20.0.0 ('I Am The Sun') 64-bit
Writing library                          : libebml v1.3.5 + v1.4.8
Cover                                    : Yes
Attachments                              : Cover.jpg

Video
ID                                       : 1
Format                                   : HEVC
Format/Info                              : High Efficiency Video Coding
Format profile                           : Main [email protected]@High
Codec ID                                 : V_MPEGH/ISO/HEVC
Duration                                 : 1 h 52 min
Bit rate                                 : 6 949 kb/s
Width                                    : 1 920 pixels
Height                                   : 1 038 pixels
Display aspect ratio                     : 1.85:1
Frame rate mode                          : Constant
Frame rate                               : 24.000 FPS
Color space                              : YUV
Chroma subsampling                       : 4:2:0
Bit depth                                : 10 bits
Bits/(Pixel*Frame)                       : 0.145
Stream size                              : 5.45 GiB (89%)
Title                                    : Velvet Buzzsaw (2019)
Writing library                          : x265 2.9+9-f74003e88622:[Windows][GCC 8.2.0][64 bit] 10bit
Encoding settings                        : cpuid=1111039 / frame-threads=5 / numa-pools=4 / wpp / no-pmode / no-pme / no-psnr / no-ssim / log-level=3 / input-csp=1 / input-res=1920x1038 / interlace=0 / total-frames=0 / level-idc=51 / high-tier=1 / uhd-bd=0 / ref=5 / allow-non-conformance / no-repeat-headers / annexb / no-aud / no-hrd / info / hash=0 / no-temporal-layers / open-gop / min-keyint=23 / keyint=250 / gop-lookahead=0 / bframes=8 / b-adapt=2 / b-pyramid / bframe-bias=0 / rc-lookahead=40 / lookahead-slices=6 / scenecut=40 / radl=0 / no-intra-refresh / ctu=64 / min-cu-size=8 / no-rect / no-amp / max-tu-size=32 / tu-inter-depth=1 / tu-intra-depth=1 / limit-tu=0 / rdoq-level=1 / dynamic-rd=0.00 / no-ssim-rd / signhide / no-tskip / nr-intra=0 / nr-inter=0 / no-constrained-intra / no-strong-intra-smoothing / max-merge=2 / limit-refs=3 / no-limit-modes / me=3 / subme=7 / merange=57 / temporal-mvp / weightp / weightb / no-analyze-src-pics / deblock=-2:-2 / no-sao / no-sao-non-deblock / rd=3 / no-early-skip / rskip / no-fast-intra / no-tskip-fast / no-cu-lossless / no-b-intra / no-splitrd-skip / rdpenalty=0 / psy-rd=2.00 / psy-rdoq=0.00 / no-rd-refine / no-lossless / cbqpoffs=0 / crqpoffs=0 / rc=abr / bitrate=7000 / qcomp=0.65 / qpstep=1 / stats-write=0 / stats-read=0 / vbv-maxrate=50000 / vbv-bufsize=50000 / vbv-init=0.9 / ipratio=1.40 / pbratio=1.30 / aq-mode=1 / aq-strength=1.00 / cutree / zone-count=0 / no-strict-cbr / qg-size=32 / no-rc-grain / qpmax=69 / qpmin=0 / no-const-vbv / sar=1 / overscan=0 / videoformat=5 / range=0 / colorprim=9 / transfer=16 / colormatrix=9 / chromaloc=0 / display-window=0 / max-cll=0,0 / min-luma=0 / max-luma=1023 / log2-max-poc-lsb=8 / vui-timing-info / vui-hrd-info / slices=1 / no-opt-qp-pps / no-opt-ref-list-length-pps / no-multi-pass-opt-rps / scenecut-bias=0.05 / no-opt-cu-delta-qp / no-aq-motion / no-hdr / no-hdr-opt / no-dhdr10-opt / no-idr-recovery-sei / analysis-reuse-level=5 / scale-factor=0 / refine-intra=0 / refine-inter=0 / refine-mv=0 / no-limit-sao / ctu-info=0 / no-lowpass-dct / refine-mv-type=0 / copy-pic=1 / max-ausize-factor=1.0 / no-dynamic-refine / no-single-sei
Default                                  : Yes
Forced                                   : No
Color range                              : Limited
Color primaries                          : BT.2020
Transfer characteristics                 : PQ
Matrix coefficients                      : BT.2020 non-constant

Audio #1
ID                                       : 2
Format                                   : AC-3
Format/Info                              : Audio Coding 3
Codec ID                                 : A_AC3
Duration                                 : 1 h 51 min
Bit rate mode                            : Constant
Bit rate                                 : 384 kb/s
Channel(s)                               : 6 channels
Channel positions                        : Front: L C R, Side: L R, LFE
Sampling rate                            : 48.0 kHz
Frame rate                               : 31.250 FPS (1536 SPF)
Bit depth                                : 16 bits
Compression mode                         : Lossy
Stream size                              : 308 MiB (5%)
Title                                    : БЗ - DniproFilm
Language                                 : Ukrainian
Service kind                             : Complete Main
Default                                  : Yes
Forced                                   : Yes

Audio #2
ID                                       : 3
Format                                   : E-AC-3
Format/Info                              : Enhanced Audio Coding 3
Format profile                           : E-AC-3+Atmos / E-AC-3
Codec ID                                 : A_EAC3
Duration                                 : 1 h 52 min
Bit rate mode                            : Constant
Bit rate                                 : 448 kb/s
Channel(s)                               : 15 objects / 6 channels
Channel positions                        : 15 objects / Front: L C R, Side: L R, LFE
Sampling rate                            : 48.0 kHz
Frame rate                               : 187.500 FPS (256 SPF)
Compression mode                         : Lossy
Stream size                              : 361 MiB (6%)
Title                                    : Original
Language                                 : English
Service kind                             : Complete Main
Default                                  : No
Forced                                   : No

Text #1
ID                                       : 4
Format                                   : UTF-8
Codec ID                                 : S_TEXT/UTF8
Codec ID/Info                            : UTF-8 Plain Text
Duration                                 : 1 h 44 min
Bit rate                                 : 56 b/s
Count of elements                        : 1313
Stream size                              : 43.5 KiB (0%)
Title                                    : Full
Language                                 : English
Default                                  : Yes
Forced                                   : No

Text #2
ID                                       : 5
Format                                   : UTF-8
Codec ID                                 : S_TEXT/UTF8
Codec ID/Info                            : UTF-8 Plain Text
Duration                                 : 1 h 46 min
Bit rate                                 : 63 b/s
Count of elements                        : 1518
Stream size                              : 49.2 KiB (0%)
Title                                    : SDH
Language                                 : English
Default                                  : No
Forced                                   : No
Світлини





Джерело: &
Особиста оцінка: 0 - не дивився


Авторський реліз (завантажувати можна без реєстрації)
 Трекер:    Зареєстрований   

Завантажити / скачати фільм українською



відео для новачків



 Зареєстрований:   2019-02-25 20:42
 Розмір:   6.1 GB 
 Оцінка фільму:   10/10 (Голосів: 1)
   
Anоnymous 
Попереджень: 1
Попереджень: 1 


З нами з: 25.08.18
Востаннє: 23.03.19
Повідомлень: 603

2019-02-12 11:50  
Для чого викладати відео з чорними полосами?
Є ж нормальний ріп

-Star-Lord- 
VIP


З нами з: 09.08.18
Востаннє: 23.03.19
Повідомлень: 724

2019-02-12 11:53  
Anоnymous
Бо кращого в x265 не знайшов. Відеоряд заміню через деякий час.

-Star-Lord- 
VIP


З нами з: 09.08.18
Востаннє: 23.03.19
Повідомлень: 724

2019-02-25 20:42  
Замінив відеоряд на якісніший.
myru22 
Частий відвідувач


З нами з: 27.11.16
Востаннє: 21.03.19
Повідомлень: 35

2019-03-19 18:52  
Народ. Підкажіть, яка це марка LG Verizon.


Ваш часовий пояс: GMT + 2 Години

Нова тема   Відповісти